2 сезон

iTunes

1 сезон

1

iTunes

iTunes

iTunes

1 сезон

RePack

30

ИГРА 18+

pack

ВАЖНО

!!Акция!!

Alien_RageХит недели

RePack

MK11
pack

Забери бонус

RePack

jed

!!Акция!!

Alien_Rage

RePack

fifa19

RePack

Assassins Creed: Odyssey

RePack

NEED FOR SPEED™ PAYBACK

4 сезон

9 сезон

Бесстыжие 9 сезон

Все сериалы

все сериалы на PB.wtf

RePack

FAR CRY 5
  

Крёстный / Сезон: 1 / Серии: 1-8 из 8 (Тимур Алпатов) [2014, Драма, WEB-DL 1080p] pb.wtf

Крёстный через торрент pb.wtf

Размер: 14.28 GB | Добавлен: 2 года 6 мес. назад | Торрент скачан:45 раз
Скачать  

23-04-2018 00:22 Крёстный Скачать торрент  

КрёстныйГод выпуска: 2014
Страна: Россия
Жанр: Драма
Продолжительность: ~ 00:48:00
Субтитры: отсутствуют

Режиссер: Тимур Алпатов



В ролях:

Сергей Пускепалис, Андрей Смоляков, Северия Янушаускайте, Владимир Кошевой, Ольга Ломоносова, Дмитрий Калязин, Марина Коняшкина, Микаэл Арамян, Григорий Зельцер, Олег Тилькин, Маргарита Адаева, Дмитрий Быковский-Ромашов, Алиса Горшкова, Сергей Барковский, Дмитрий Блохин, Геннадий Смирнов, Артур Ваха, Филипп Азаров

Описание:

Бывший военный врач Алехин - акушер от Бога. Во время войны в Косово он помогал роженицам, став крестным для сотен сербских и албанских ребятишек. Но в мирное время действуют другие законы. В надежде получить Нобелевскую премию, амбициозные коллеги Алехина затевают научно-медицинский эксперимент. Его цель — помочь родиться ребенку неизвестной женщины, лежащей в коме. Алехин соглашается участвовать, но не ради славы или денег. Для него важен лишь ребенок, которому необходима помощь крестного.

Качество: WEB-DL 1080p
Формат: MKV

Видео: 1920х1080 (16:9), 25 fps, AVC MPEG-4 (x264), High@L4.0 ~ 5000 kbps avg, 0.096 bit/pixel
Аудио: 48 kHz, AC3, 2 ch, 192 kbps avg
скриншот   скриншот   скриншот   скриншот  

Общее
Уникальный идентификатор : 142508085379345679103880507665313750972 (0x6B360F13BD16537BD7638310F9A4DFBC)
Полное имя : D:\Krestnyy.2014.WEB-DL.(1080p).Nikolspup\Krestnyy.(01.seriya.iz.08).2014.WEB-DL.(1080p).Nikolspup.mkv
Формат : Matroska
Версия формата : Version 2
Размер файла : 1,76 Гбайт
Продолжительность : 47 м. 32 с.
Общий поток : 5307 Кбит/сек
Программа кодирования : Lavf54.63.104
Библиотека кодирования : Lavf54.63.104 / Lavf54.63.104

Видео
Идентификатор : 1
Формат : AVC
Формат/Информация : Advanced Video Codec
Профиль формата : High@L4
Параметр CABAC формата : Да
Параметр RefFrames формата : 4 кадра
Идентификатор кодека : V_MPEG4/ISO/AVC
Продолжительность : 47 м. 32 с.
Битрейт : 5010 Кбит/сек
Ширина : 1920 пикселей
Высота : 1080 пикселей
Соотношение сторон : 16:9
Режим частоты кадров : Постоянный
Частота кадров : 25,000 кадров/сек
Цветовое пространство : YUV
Субдискретизация насыщенности : 4:2:0
Битовая глубина : 8 бит
Тип развёртки : Прогрессивная
Бит/(Пиксели*Кадры) : 0.097
Размер потока : 1,66 Гбайт (94%)
Default : Нет
Forced : Нет

Аудио
Идентификатор : 2
Формат : AC-3
Формат/Информация : Audio Coding 3
Расширение режима : CM (complete main)
Параметр Endianness формата : Big
Идентификатор кодека : A_AC3
Продолжительность : 47 м. 32 с.
Вид битрейта : Постоянный
Битрейт : 192 Кбит/сек
Каналы : 2 канала
Расположение каналов : Front: L R
Частота : 48,0 КГц
Частота кадров : 31,250 кадров/сек (1536 spf)
Метод сжатия : С потерями
Размер потока : 65,3 Мбайт (4%)
Язык : Russian
Default : Да
Forced : Нет

pb.wtf



Скачать Крёстный через торрент http://i64.fastpic.ru/big/2014/1231/f8/b607c321402a317b4499634ca01bb4f8.jpg Скачать фильм Крёстный через торрент бесплантно в хорошем качестве Описание: Бывший военный врач Алехин - акушер от Бога. Во время войны в Косово он помогал роженицам, став крестным для сотен сербских и ... 10 10 3
Торрент: Зарегистрирован [2018-04-23 00:22] · скачан: 45 раз
Статус: √ проверено
Размер: 14.28 GB
Как cкачать? Как скачать Крёстный через торрент | qTorrent

% Раздел Тема Автор DL S | L
Наши сериалы [ 21.43 GB ] Крёстный / Сезон: 1 / Серии: 1-8 из 8 [2014 HDTV 1080i] bober100 Скачать
1 | 0
Наши сериалы [ 4.35 GB ] Крёстный / Сезон: 1 / Серии 1-8 из 8 [2014 Россия IPTVRip) GEKADOL Скачать
1 | 0
Наши сериалы [ 4.3 GB ] Крестная дочь /Сезон: 1/Серии: 8 из 8 / [2011 DVDRip] -=Cherry=- Скачать
1 | 0

28-11-2019 20:33  

Отключить всю рекламу на сайте

    Дорогой пользователь! Огромная просьба, поблагодарите релизера, оцените раздачу и оставьте свои комментарий, если Вы скачали Крёстный через торрент бесплатно! Внесите свою лепту в развитие PiratBit!
    Комментировать посты могут только пользователи прошедшие не сложную регистрацию
    Показать сообщения:    

    Крёстный через торрент
    Скачать бесплатно Крёстный
    Крёстный скачать торрент
    Крёстный смотреть онлайн
    Cкачать фильм Крёстный бесплатно
    Крёстный скачать торрент в хорошем качестве
    Крёстный смотреть онлайн бесплатно в хорошем качестве


    Вы не можете начинать темы
    Вы не можете отвечать на сообщения
    Вы не можете редактировать свои сообщения
    Вы не можете удалять свои сообщения
    Вы не можете голосовать в опросах
    Вы не можете прикреплять файлы к сообщениям
    Вы можете скачивать файлы