новый адрес
Ссылка на приватное зеркало всего за 1$. Внимание количество ограничено!!!

iTunes

1+1

iTunes

мы

iTunes

1

iTunes

Чернобыль

iTunes

Ральф против интернета

Лицензия

ПШазам

Лицензия

Оно 2

Лицензия

30
pack

Вам бонус

ВАЖНО

!!Акция!!

Alien_RageХит недели

RePack

Resident Evil 21

ИГРА 18+

pack

RePack

jed

!!Акция!!

Alien_Rage

RePack

fifa19

RePack

Assassins Creed: Odyssey

RePack

NEED FOR SPEED™ PAYBACK

3 сезон

9 сезон

Бесстыжие 9 сезон

Все сериалы

все сериалы на PB.wtf

RePack

FAR CRY 5
Ребята, катастрофически не хватает 1900р. для оплаты серверов за Октябрь (всвязи с блокировками трафик упал в 3 раза), 1-2р., выручайте.
  

Глубокое синее море 2 / Deep Blue Sea 2 (Дэрин Скотт) [2018, ужасы, фантастика, боевик, BDRip-AVC] MVO [HDrezka Studio] pb.wtf

Глубокое синее море 2 через торрент pb.wtf

Размер: 2.63 GB | Добавлен: 1 год 7 мес. назад | Торрент скачан:296 раз
Скачать  

23-04-2018 02:59 Глубокое синее море 2 Скачать торрент  

Глубокое синее море 2 / Deep Blue Sea 2
Год выпуска: 2018
Страна: США
Жанр: ужасы, фантастика, боевик
Продолжительность: 01:35:59
Перевод: Профессиональный (многоголосый) | HDRezka studio
Субтитры: Английские

Режиссер: Дэрин Скотт

rating

В ролях:

Майкл Бич, Даниэль Савре, Роб Майес, Дэррон Каллиган, Лили Спангенберг, Нэйтан Линн, Ким Систер, Джино Ли, Джереми Боадо

Описание:

Миллиардер Карл Дюрант вместе с группой учёных ставит эксперименты на бычьих акулах, которые вскоре восстанут и устроят экспериментаторам веселую жизнь.

Качество: BDRip-AVC
Формат: MKV

Видео: 1024x576 (16:9), 23,976 fps, x264 ~3 370 kbps avg, 0.238 bit/pixel
Аудио#1: 48 kHz, AC3 Dolby Digital, 2 (L,R) ch, ~192.00 kbps avg | RUS (HDRezka)
Аудио#2: 48 kHz, AC3 Dolby Digital, 3/2 (L,C,R,l,r) + LFE ch, ~448.00 kbps avg | ENG
скриншот   скриншот   скриншот   скриншот   скриншот   скриншот  

Общее
Уникальный идентификатор : 173519514337058528192419116266535502596 (0x828AA492747FF0F1BD836C4D316FC304)
Полное имя : E:\OlLanDGroup\Deep.Blue.Sea.2.2018.BDRip(AVC).OlLanDGroup.mkv
Формат : Matroska
Версия формата : Version 4 / Version 2
Размер файла : 2,63 Гбайт
Продолжительность : 1 ч. 33 м.
Общий поток : 4013 Кбит/сек
Название фильма : Deep.Blue.Sea.2.2018 #TorpedoUK#
Дата кодирования : UTC 2018-04-23 01:01:13
Программа кодирования : mkvmerge v7.8.0 ('River Man') 32bit built on Apr 3 2015 12:11:22
Библиотека кодирования : libebml v1.3.1 + libmatroska v1.4.2

Видео
Идентификатор : 1
Формат : AVC
Формат/Информация : Advanced Video Codec
Профиль формата : High@L4.1
Параметр CABAC формата : Да
Параметр ReFrames формата : 10 кадров
Идентификатор кодека : V_MPEG4/ISO/AVC
Продолжительность : 1 ч. 33 м.
Битрейт : 3370 Кбит/сек
Ширина : 1024 пикселя
Высота : 576 пикселей
Соотношение сторон : 16:9
Режим частоты кадров : Постоянный
Частота кадров : 23,976 (24000/1001) кадра/сек
Цветовое пространство : YUV
Субдискретизация насыщенности : 4:2:0
Битовая глубина : 8 бит
Тип развёртки : Прогрессивная
Бит/(Пиксели*Кадры) : 0.238
Размер потока : 2,21 Гбайт (84%)
Библиотека кодирования : x264 core 146 r2538 121396c
Настройки программы : cabac=1 / ref=10 / deblock=1:-3:-3 / analyse=0x3:0x133 / me=umh / subme=11 / psy=1 / psy_rd=1.00:0.03 / mixed_ref=1 / me_range=48 / chroma_me=1 / trellis=2 / 8x8dct=1 / cqm=0 / deadzone=21,11 / fast_pskip=1 / chroma_qp_offset=-3 / threads=6 / lookahead_threads=1 / sliced_threads=0 / nr=0 / decimate=1 / interlaced=0 / bluray_compat=0 / constrained_intra=0 / bframes=10 / b_pyramid=2 / b_adapt=2 / b_bias=0 / direct=3 / weightb=1 / open_gop=0 / weightp=2 / keyint=240 / keyint_min=23 / scenecut=40 / intra_refresh=0 / rc_lookahead=40 / rc=2pass / mbtree=0 / bitrate=3370 / ratetol=1.0 / qcomp=0.60 / qpmin=0 / qpmax=69 / qpstep=4 / cplxblur=20.0 / qblur=0.5 / vbv_maxrate=50000 / vbv_bufsize=62500 / nal_hrd=none / filler=0 / ip_ratio=1.40 / pb_ratio=1.30 / aq=1:1.00
Язык : English
Default : Да
Forced : Нет

Аудио #1
Идентификатор : 2
Формат : AC-3
Формат/Информация : Audio Coding 3
Расширение режима : CM (complete main)
Параметр Endianness формата : Big
Идентификатор кодека : A_AC3
Продолжительность : 1 ч. 33 м.
Вид битрейта : Постоянный
Битрейт : 192 Кбит/сек
Каналы : 2 канала
Расположение каналов : Front: L R
Частота : 48,0 КГц
Частота кадров : 31,250 кадров/сек (1536 spf)
Битовая глубина : 16 бит
Метод сжатия : С потерями
Размер потока : 129 Мбайт (5%)
Заголовок : MVO (HDRezka)
Язык : Russian
Default : Да
Forced : Нет

Аудио #2
Идентификатор : 3
Формат : AC-3
Формат/Информация : Audio Coding 3
Расширение режима : CM (complete main)
Параметр Endianness формата : Big
Идентификатор кодека : A_AC3
Продолжительность : 1 ч. 33 м.
Вид битрейта : Постоянный
Битрейт : 448 Кбит/сек
Каналы : 6 каналов
Расположение каналов : Front: L C R, Side: L R, LFE
Частота : 48,0 КГц
Частота кадров : 31,250 кадров/сек (1536 spf)
Битовая глубина : 16 бит
Метод сжатия : С потерями
Размер потока : 301 Мбайт (11%)
Заголовок : Original
Язык : English
Default : Нет
Forced : Нет

Текст #1
Идентификатор : 4
Формат : UTF-8
Идентификатор кодека : S_TEXT/UTF8
Идентификатор кодека/Информация : UTF-8 Plain Text
Продолжительность : 1 ч. 32 м.
Битрейт : 51 бит/сек
Count of elements : 1035
Размер потока : 34,9 Кбайт (0%)
Заголовок : Full
Язык : English
Default : Нет
Forced : Нет

Текст #2
Идентификатор : 5
Формат : UTF-8
Идентификатор кодека : S_TEXT/UTF8
Идентификатор кодека/Информация : UTF-8 Plain Text
Продолжительность : 1 ч. 33 м.
Битрейт : 54 бит/сек
Count of elements : 1139
Размер потока : 37,3 Кбайт (0%)
Заголовок : SDH
Язык : English
Default : Нет
Forced : Нет

Меню
00:00:00.000 : en:00:00:00.000
00:09:24.731 : en:00:09:24.731
00:19:46.310 : en:00:19:46.310
00:30:53.018 : en:00:30:53.018
00:40:03.693 : en:00:40:03.693
00:49:44.440 : en:00:49:44.440
01:00:18.281 : en:01:00:18.281
01:10:10.373 : en:01:10:10.373
01:19:39.441 : en:01:19:39.441
01:30:03.106 : en:01:30:03.106

pb.wtf



Скачать Глубокое синее море 2 через торрент http://pic1.kartinco.top/images/11/qco9i.jpg Скачать фильм Глубокое синее море 2 через торрент бесплантно в хорошем качестве Описание: Миллиардер Карл Дюрант вместе с группой учёных ставит эксперименты на бычьих акулах, которые вскоре восстанут и устроят ... 7.8 10 8
Торрент: Зарегистрирован [2018-04-23 02:59] · скачан: 296 раз
Статус: T временная
Размер: 2.63 GB
Как cкачать? Как скачать Глубокое синее море 2 через торрент | qTorrent

% Раздел Тема Автор DL S | L
Фильмы 2018 [DVDrip, WEB-DLRip, HDrip] (DUB, MVO) [ 2.33 GB ] Глубокое синее море 2 / Deep Blue Sea 2 [2018 BDRip-AVC] MVO [HDrezka Studio] - ExKinoRay Enigma2010 Скачать
2 | 0
T Фильмы (Blu-ray, BD-Remux, HDDVD) [ 14.75 GB ] Глубокое синее море 2 / Deep Blue Sea 2 [2018 BD Remux 1080p] MVO [HDrezka Studio] bober100 Скачать
1 | 0
T Фильмы [HD 720p, 1080p] (Хороший звук DUB, MVO) [ 10.4 GB ] Глубокое синее море 2 / Deep Blue Sea 2 [2018 BDRip 1080p] MVO [HDrezka Studio] bober100 Скачать
1 | 0
T Фильмы 2018 [DVDrip, WEB-DLRip, HDrip] (DUB, MVO) [ 1.46 GB ] Глубокое синее море 2 / Deep Blue Sea 2 [2018 BDRip] MVO [HDrezka Studio] bober100 Скачать
2 | 0
T Фильмы [HD 720p, 1080p] (Хороший звук DUB, MVO) [ 5.27 GB ] Глубокое синее море 2 / Deep Blue Sea 2 [2018 BDRip 720p] MVO [HDrezka Studio] bober100 Скачать
1 | 0
T Фильмы 2018 [DVDrip, WEB-DLRip, HDrip] (DUB, MVO) [ 702 MB ] Глубокое синее море 2 / Deep Blue Sea 2 [2018 HDRip] MVO [HDrezka Studio] Sherif Скачать
1 | 0

28-11-2019 20:33  

Отключить всю рекламу на сайте

    Дорогой пользователь! Огромная просьба, поблагодарите релизера, оцените раздачу и оставьте свои комментарий, если Вы скачали Глубокое синее море 2 через торрент бесплатно! Внесите свою лепту в развитие PiratBit!
    Комментировать посты могут только пользователи прошедшие не сложную регистрацию
    Показать сообщения:    

    Глубокое синее море 2 через торрент
    Скачать бесплатно Глубокое синее море 2
    Глубокое синее море 2 скачать торрент
    Глубокое синее море 2 смотреть онлайн
    Cкачать фильм Глубокое синее море 2 бесплатно
    Глубокое синее море 2 скачать торрент в хорошем качестве
    Глубокое синее море 2 смотреть онлайн бесплатно в хорошем качестве


    Вы не можете начинать темы
    Вы не можете отвечать на сообщения
    Вы не можете редактировать свои сообщения
    Вы не можете удалять свои сообщения
    Вы не можете голосовать в опросах
    Вы не можете прикреплять файлы к сообщениям
    Вы можете скачивать файлы