2 сезон

iTunes

1 сезон

1

iTunes

iTunes

iTunes

1 сезон

RePack

30

ИГРА 18+

pack

ВАЖНО

!!Акция!!

Alien_RageХит недели

RePack

MK11
pack

Забери бонус

RePack

jed

!!Акция!!

Alien_Rage

RePack

fifa19

RePack

Assassins Creed: Odyssey

RePack

NEED FOR SPEED™ PAYBACK

4 сезон

9 сезон

Бесстыжие 9 сезон

Все сериалы

все сериалы на PB.wtf

RePack

FAR CRY 5
  

Огненный ангел / Серии: 1-4 из 4 (Ольга Мотина) [2018, Психологический триллер, WEB-DLRip] pb.wtf

Огненный ангел через торрент pb.wtf

Размер: 2.16 GB | Добавлен: 2 года 6 мес. назад | Торрент скачан:52 раза
Скачать  

23-04-2018 03:33 Огненный ангел Скачать торрент  

Огненный ангелГод выпуска: 2018
Страна: Россия
Жанр: Психологический триллер
Продолжительность: ~ 00:44:00
Субтитры: отсутствуют

Режиссер: Ольга Мотина



В ролях:

Полина Филоненко, Алёна Савастова, Степан Бекетов, Кирилл Запорожский, Евгений Терских, Дмитрий Поднозов, Оксана Базилевич, Анастасия Шалыгина, Антон Чернов

Описание:

После аварии 11 лет назад Ева Заринская потеряла память. О своем прошлом она знает только по рассказам мужа Дмитрия. Проведя много лет заграницей, супруги возвращаются на родину. С Евой начинают происходить непонятные вещи: снятся странные сны, в памяти всплывают необъяснимые воспоминания, в которых ее преследует образ маленькой дочери. Только, по словам Дмитрия, у Евы никогда не было детей. Но можно ли ему верить? Она все больше сомневается в его словах, мало того, не понимает, кто на самом деле этот человек, с которым живет столько лет. Отчаянно пытаясь вспомнить детали своей прошлого, Ева приступает к расследованию...

Качество: WEB-DLRip
Формат: AVI

Видео: XviD, 1 600 Кбит/с, 720x400
Аудио: AC3, 2 ch, 192 Кбит/с
скриншот   скриншот   скриншот   скриншот  

Общее
Полное имя : D:\Огненный ангел (2018),WEB-DLRip.Files-x\1.Огненный ангел (2018),WEB-DLRip.Files-x.avi
Формат : AVI
Формат/Информация : Audio Video Interleave
Размер файла : 553 Мбайт
Продолжительность : 44 м. 32 с.
Общий поток : 1736 Кбит/сек
Программа кодирования : VirtualDubMod 1.5.10.3 | www.virtualdub-fr.org || (build 2550/release)
Библиотека кодирования : VirtualDubMod build 2550/release

Видео
Идентификатор : 0
Формат : MPEG-4 Visual
Профиль формата : Advanced Simple@L5
Параметр BVOP формата : 1
Параметр QPel формата : Нет
Параметр GMC формата : Без точки перехода
Параметр матрицы формата : Выборочная
Идентификатор кодека : XVID
Идентификатор кодека/Подсказка : XviD
Продолжительность : 44 м. 32 с.
Битрейт : 1535 Кбит/сек
Ширина : 720 пикселей
Высота : 400 пикселей
Соотношение сторон : 16:9
Частота кадров : 25,000 кадров/сек
Цветовое пространство : YUV
Субдискретизация насыщенности : 4:2:0
Битовая глубина : 8 бит
Тип развёртки : Прогрессивная
Метод сжатия : С потерями
Бит/(Пиксели*Кадры) : 0.213
Размер потока : 489 Мбайт (88%)
Библиотека кодирования : XviD 73

Аудио
Идентификатор : 1
Формат : AC-3
Формат/Информация : Audio Coding 3
Расширение режима : CM (complete main)
Параметр Endianness формата : Big
Идентификатор кодека : 2000
Продолжительность : 44 м. 32 с.
Вид битрейта : Постоянный
Битрейт : 192 Кбит/сек
Каналы : 2 канала
Расположение каналов : Front: L R
Частота : 48,0 КГц
Частота кадров : 31,250 кадров/сек (1536 spf)
Метод сжатия : С потерями
Размер потока : 61,2 Мбайт (11%)
Выравнивание : Разделение по промежуткам
Продолжительность промежутка : 40 мс. (1,00 видеокадр)
Время предзагрузки промежутка : 500 мс.

pb.wtf



Скачать Огненный ангел через торрент http://i105.fastpic.ru/big/2018/0421/a8/609e6ce547da673d6aa4cae0ff21cfa8.jpg Скачать фильм Огненный ангел через торрент бесплантно в хорошем качестве Описание: После аварии 11 лет назад Ева Заринская потеряла память. О своем прошлом она знает только по рассказам мужа Дмитрия. Проведя ... 8.4 10 5
Торрент: Зарегистрирован [2018-04-23 03:33] · скачан: 52 раз
Статус: √ проверено
Размер: 2.16 GB
Как cкачать? Как скачать Огненный ангел через торрент | qTorrent

% Раздел Тема Автор DL S | L
Наши сериалы [ 11.25 GB ] Огненный ангел / Серии: 1-4 из 4 [2018 HDTV 1080i] bober100 Скачать
1 | 0
Наши сериалы [ 4.21 GB ] Огненный ангел / Серии: 1-4 из 4 [2018 Психологический WEB-DL 720p] bober100 Скачать
1 | 0
Наши сериалы [ 2.3 GB ] Огненный ангел / Серии: 1-4 из 4 [2018 Психологический WEB-DLRip-AVC] bober100 Скачать
1 | 0
Наши сериалы [ 2.25 GB ] Огненный ангел / Серии: 1-4 из 4 [2018 SATRip-AVC] aleksan55 Скачать
1 | 0
Наши сериалы [ 2.34 GB ] Огненный ангел\Серия 1-4 из 4\ [2018 Психологический SATRip] oleg8 Скачать
1 | 0

28-11-2019 20:33  

Отключить всю рекламу на сайте

    Дорогой пользователь! Огромная просьба, поблагодарите релизера, оцените раздачу и оставьте свои комментарий, если Вы скачали Огненный ангел через торрент бесплатно! Внесите свою лепту в развитие PiratBit!
    Комментировать посты могут только пользователи прошедшие не сложную регистрацию
    Показать сообщения:    

    Огненный ангел через торрент
    Скачать бесплатно Огненный ангел
    Огненный ангел скачать торрент
    Огненный ангел смотреть онлайн
    Cкачать фильм Огненный ангел бесплатно
    Огненный ангел скачать торрент в хорошем качестве
    Огненный ангел смотреть онлайн бесплатно в хорошем качестве


    Вы не можете начинать темы
    Вы не можете отвечать на сообщения
    Вы не можете редактировать свои сообщения
    Вы не можете удалять свои сообщения
    Вы не можете голосовать в опросах
    Вы не можете прикреплять файлы к сообщениям
    Вы можете скачивать файлы