Ссылка на приватное зеркало нашего сайта всего за 1$. Внимание количество ограничено!!!

2 сезон

iTunes

1 сезон

1

iTunes

iTunes

iTunes

1 сезон

RePack

30

ИГРА 18+

pack

ВАЖНО

!!Акция!!

Alien_RageХит недели

RePack

MK11
pack

Забери бонус

RePack

jed

!!Акция!!

Alien_Rage

RePack

fifa19

RePack

Assassins Creed: Odyssey

RePack

NEED FOR SPEED™ PAYBACK

4 сезон

9 сезон

Бесстыжие 9 сезон

Все сериалы

все сериалы на PB.wtf

RePack

FAR CRY 5
  

Другая я / Серии: 1-4 из 4 (Ольга Золотарева) [2018, Мелодрама, WEBRip 720p] pb.wtf

Другая я через торрент pb.wtf

Размер: 4.33 GB | Добавлен: 2 года 6 мес. назад | Торрент скачан:59 раз
Скачать  

23-04-2018 06:41 Другая я Скачать торрент  

Другая яГод выпуска: 2018
Страна: Украина
Жанр: Мелодрама
Продолжительность: ~00:48:00
Перевод: Не требуется
Субтитры: отсутствуют

Режиссер: Ольга Золотарева

В ролях:

Настя Задорожная, Вячеслав Довженко, Валентин Томусяк, Владимир Гориславец, Анна Расстальная, Марк Дробот, Павел Пискун

Описание:

Вика и Ника похожи как две капли воды внешне, но характеры их полностью противоположны. Яркая, эпатажная Вика делает карьеру в рекламном бизнесе, всегда окружена поклонниками. Ника же – серая мышь, работает в НИИ. Однажды Вика, решив, что ей пора развеяться, задумала отправиться в путешествие по Украине с неким писателем Сержем, с которым познакомилась в соцсети. Но с работы ее отпускать не хотят. Вика находит единственно возможное решение – уговаривает сестру заменить ее. Таким образом Ника становится Викой. Серж оказывается совсем не писателем, а контрабандистом, торгующим антиквариатом. Вика выводит его на чистую воду, а он уезжает на ее машине. Уже по возвращении домой Вику арестовывают – ее обвиняют в наезде на пешехода. А пока Ника исполняла роль Вики, она успела не только познакомиться с женихом сестры Артемом, но и влюбиться в него. Распутать этот клубок сестрам будет ох как непросто.

Качество: WEBRip 720p
Формат: MKV

Видео: MPEG-4 AVC, ~ 3 000 Кбит/с, 1280x720, 25 кадр/с
Аудио: АС3, 2 ch, 192 Кбит/с
скриншот   скриншот   скриншот   скриншот  

Общее
Уникальный идентификатор : 217110248248549038049010711884882720234 (0xA355E9AF752EB27AB807F48E283335EA)
Полное имя : D:\Drugaja.ja.720.[RiperAM]\1.Drugaja.ja.720.[RiperAM].mkv
Формат : Matroska
Версия формата : Version 2
Размер файла : 1,08 Гбайт
Продолжительность : 48 м. 24 с.
Режим общего битрейта : Постоянный
Общий поток : 3188 Кбит/сек
Дата кодирования : UTC 2018-04-22 17:17:46
Программа кодирования : mkvmerge v7.8.0 ('River Man') 32bit built on Apr 3 2015 12:11:22
Библиотека кодирования : libebml v1.3.1 + libmatroska v1.4.2

Видео
Идентификатор : 1
Формат : AVC
Формат/Информация : Advanced Video Codec
Профиль формата : High@L3.1
Параметр CABAC формата : Нет
Параметр RefFrames формата : 2 кадра
Идентификатор кодека : V_MPEG4/ISO/AVC
Продолжительность : 48 м. 24 с.
Вид битрейта : Постоянный
Битрейт : 3000 Кбит/сек
Ширина : 1280 пикселей
Высота : 720 пикселей
Соотношение сторон : 16:9
Режим частоты кадров : Постоянный
Частота кадров : 25,000 кадров/сек
Стандарт вещания : PAL
Цветовое пространство : YUV
Субдискретизация насыщенности : 4:2:0
Битовая глубина : 8 бит
Тип развёртки : Прогрессивная
Бит/(Пиксели*Кадры) : 0.130
Размер потока : 1016 Мбайт (92%)
Default : Да
Forced : Нет
Цветовой диапазон : Limited
Основные цвета : BT.709
Характеристики трансфера : BT.709
Коэффициенты матрицы : BT.709

Аудио
Идентификатор : 2
Формат : AC-3
Формат/Информация : Audio Coding 3
Расширение режима : CM (complete main)
Параметр Endianness формата : Big
Идентификатор кодека : A_AC3
Продолжительность : 48 м. 24 с.
Вид битрейта : Постоянный
Битрейт : 192 Кбит/сек
Каналы : 2 канала
Расположение каналов : Front: L R
Частота : 48,0 КГц
Частота кадров : 31,250 кадров/сек (1536 spf)
Метод сжатия : С потерями
Размер потока : 66,5 Мбайт (6%)
Default : Да
Forced : Нет

pb.wtf



Скачать Другая я через торрент http://i104.fastpic.ru/big/2018/0422/89/2e6e88c15c5eb41313554b0c3051e489.jpg Скачать фильм Другая я через торрент бесплантно в хорошем качестве Описание: Вика и Ника похожи как две капли воды внешне, но характеры их полностью противоположны. Яркая, эпатажная Вика делает карьеру в ... 10 10 2
Торрент: Зарегистрирован [2018-04-23 06:41] · скачан: 59 раз
Статус: √ проверено
Размер: 4.33 GB
Как cкачать? Как скачать Другая я через торрент | qTorrent

% Раздел Тема Автор DL S | L
Наши сериалы [ 2.65 GB ] Другая я / Серии: 1-4 из 4 [2018 Мело WEBRip] bober100 Скачать
1 | 0

28-11-2019 20:33  

Отключить всю рекламу на сайте

    Дорогой пользователь! Огромная просьба, поблагодарите релизера, оцените раздачу и оставьте свои комментарий, если Вы скачали Другая я через торрент бесплатно! Внесите свою лепту в развитие PiratBit!
    Комментировать посты могут только пользователи прошедшие не сложную регистрацию
    Показать сообщения:    

    Другая я через торрент
    Скачать бесплатно Другая я
    Другая я скачать торрент
    Другая я смотреть онлайн
    Cкачать фильм Другая я бесплатно
    Другая я скачать торрент в хорошем качестве
    Другая я смотреть онлайн бесплатно в хорошем качестве


    Вы не можете начинать темы
    Вы не можете отвечать на сообщения
    Вы не можете редактировать свои сообщения
    Вы не можете удалять свои сообщения
    Вы не можете голосовать в опросах
    Вы не можете прикреплять файлы к сообщениям
    Вы можете скачивать файлы