Ссылка на приватное зеркало нашего сайта всего за 1$. Внимание количество ограничено!!!

2 сезон

iTunes

1 сезон

1

2 сезон

2 сезон

iTunes

1 сезон

RePack

30

Ultimate

ВАЖНО

ИГРА 18+

pack

RePack

MK11
pack

Забери бонус

RePack

jed

!!Акция!!

Alien_Rage

RePack

fifa19

RePack

Assassins Creed: Odyssey

RePack

NEED FOR SPEED™ PAYBACK

4 сезон

9 сезон

Бесстыжие 9 сезон

Все сериалы

все сериалы на PB.wtf

RePack

FAR CRY 5
  

Мир дикого запада / Westworld / Сезон: 2 / Серии: 1-10 из 10 (Джонатан Нолан, Джонни Кэмпбелл, Ричард Дж. Льюис) [2018, фантастика, триллер, вестерн, WEB-DL 720p] DUB [Amedia] pb.wtf

Мир дикого запада через торрент pb.wtf

Раздают: 4 [ 126 KB/s ]
Размер: 19.74 GB | Добавлен: 2 года 5 мес. назад | Торрент скачан:550 раз
Скачать  

23-04-2018 07:59 Мир дикого запада Скачать торрент  

Мир дикого запада / Westworld
Год выпуска: 2018
Страна: США
Жанр: фантастика, триллер, вестерн
Продолжительность: ~ 00:43:00 серия
Перевод: Дублированный | Кравец по заказу Amedia

Субтитры: Английские, Русские

Режиссер: Джонатан Нолан, Джонни Кэмпбелл, Ричард Дж. Льюис

rating

В ролях:


Эван Рэйчел Вуд (Dolores Abernathy), Тэнди Ньютон (Maeve Millay), Джеффри Райт (Bernard Lowe), Джеймс Марсден (Teddy Flood), Эд Харрис (Man in Black), Талула Райли (Angela), Луис Хертэм (Peter Abernathy), Энтони Хопкинс (Dr. Robert Ford), Дэниэл ТуФизерс (Ghost Nation Warrior), Люк Хемсворт (Ashley Stubbs), Анджела Сарафян (Clementine Pennyfeather), Джимми Симпсон (William)
Описание:

В футуристическом парке развлечений андроиды на фоне для исторических декораций становятся рабами людей, выполняя рутинные задания, пока в один момент сбой в программе не превращает их в опасных убийц.

Качество: WEB-DL 720p
Формат: MKV

Видео: MPEG-4 AVC, ~3 200 Кбит/с, 1280x720
Аудио#1: Русский (AC3, 2 ch, 192 Кбит/с)
Аудио#2: английский (E-AC3, 6 ch, 640 Кбит/с)


скриншот   скриншот   скриншот  

Общее
Уникальный идентификатор : 68428377032331205618554696214191722162 (0x337AD3772D2D41B6CEABB4365DAECEB2)
Полное имя : D:\Westworld.2016.S02.720p.AMZN.WEB-DL.H264\Westworld.S02E01.720p.AMZN.WEB-DL.H264.RUS.SRT.mkv
Формат : Matroska
Версия формата : Version 4 / Version 2
Размер файла : 2,16 Гбайт
Продолжительность : 1 ч. 14 м.
Режим общего битрейта : Переменный
Общий поток : 4135 Кбит/сек
Название фильма : Westworld, Season 2
Трек/Положение : 1
Трек/Всего : 10
Описание : In the aftermath of the host rebellion, the rescue team finds Bernard and the new Head of Operations asks for his help. Meanwhile, Delores promises to show Teddy the truth, and Maeve convinces Lee and Hector to help her find her daughter.
Дата выпуска : 2018-04-23
Дата кодирования : UTC 2018-04-23 08:33:05
Программа кодирования : mkvmerge v22.0.0 ('At The End Of The World') 64-bit
Библиотека кодирования : libebml v1.3.5 + libmatroska v1.4.8
IsTruncated : Yes

Видео
Идентификатор : 1
Формат : AVC
Формат/Информация : Advanced Video Codec
Профиль формата : High@L3.1
Параметр CABAC формата : Да
Параметр RefFrames формата : 5 кадров
Идентификатор кодека : V_MPEG4/ISO/AVC
Продолжительность : 1 ч. 14 м.
Вид битрейта : Переменный
Битрейт : 3109 Кбит/сек
Максимальный битрейт : 4500 Кбит/сек
Ширина : 1280 пикселей
Высота : 720 пикселей
Соотношение сторон : 16:9
Режим частоты кадров : Постоянный
Частота кадров : 23,976 (24000/1001) кадра/сек
Цветовое пространство : YUV
Субдискретизация насыщенности : 4:2:0
Битовая глубина : 8 бит
Тип развёртки : Прогрессивная
Бит/(Пиксели*Кадры) : 0.141
Размер потока : 1,62 Гбайт (75%)
Язык : English
Default : Да
Forced : Нет
Цветовой диапазон : Limited
Основные цвета : BT.709
Характеристики трансфера : BT.709
Коэффициенты матрицы : BT.709

Аудио #1
Идентификатор : 2
Формат : AC-3
Формат/Информация : Audio Coding 3
Расширение режима : CM (complete main)
Параметр Endianness формата : Big
Идентификатор кодека : A_AC3
Продолжительность : 1 ч. 14 м.
Вид битрейта : Постоянный
Битрейт : 192 Кбит/сек
Каналы : 2 канала
Расположение каналов : Front: L R
Частота : 48,0 КГц
Частота кадров : 31,250 кадров/сек (1536 spf)
Метод сжатия : С потерями
Размер потока : 103 Мбайт (5%)
Заголовок : Amedia (Кравец)
Язык : Russian
Default : Да
Forced : Нет

Аудио #2
Идентификатор : 3
Формат : E-AC-3
Формат/Информация : Audio Coding 3
Параметр Endianness формата : Big
Идентификатор кодека : A_EAC3
Продолжительность : 1 ч. 14 м.
Вид битрейта : Постоянный
Битрейт : 640 Кбит/сек
Каналы : 6 каналов
Расположение каналов : Front: L C R, Side: L R, LFE
Частота : 48,0 КГц
Частота кадров : 187,500 кадров/сек (256 spf)
Метод сжатия : С потерями
Размер потока : 342 Мбайт (15%)
Язык : English
Default : Нет
Forced : Нет

Текст #1
Идентификатор : 4
Формат : UTF-8
Идентификатор кодека : S_TEXT/UTF8
Идентификатор кодека/Информация : UTF-8 Plain Text
Продолжительность : 1 ч. 6 м.
Битрейт : 50 бит/сек
ElementCount : 605
Размер потока : 24,4 Кбайт (0%)
Заголовок : Amedia
Язык : Russian
Default : Нет
Forced : Нет

Текст #2
Идентификатор : 5
Формат : UTF-8
Идентификатор кодека : S_TEXT/UTF8
Идентификатор кодека/Информация : UTF-8 Plain Text
Продолжительность : 1 ч. 14 м.
Битрейт : 38 бит/сек
ElementCount : 714
Размер потока : 21,1 Кбайт (0%)
Язык : English
Default : Нет
Forced : Нет

Текст #3
Идентификатор : 6
Формат : UTF-8
Идентификатор кодека : S_TEXT/UTF8
Идентификатор кодека/Информация : UTF-8 Plain Text
Продолжительность : 1 ч. 14 м.
Битрейт : 42 бит/сек
ElementCount : 802
Размер потока : 23,2 Кбайт (0%)
Заголовок : SDH
Язык : English
Default : Нет
Forced : Нет

Внимание! Раздача ведётся путём добавления новых серий; при каждом добавлении создаётся новый торрент. Чтобы начать докачку новой серии, пользователям необходимо сделать следующее:
(1) остановить скачивание,
(2) удалить старый торрент у себя из клиента (старые серии удалять не надо),
(3) скачать новый торрент и запустить его у себя в клиенте вместо старого, при этом указать клиенту путь в старую папку куда и должно происходить скачивание новых серий.
Ваш клиент при этом должен произвести хеширование (проверку) старой папки (если не производит сам - помогите ему сделать это), и будет докачивать только те серии которых у вас ещё нет. Старые серии при этом не удаляются, а продолжают раздаваться!
Eсли вы уже удалили старые серии, то предотвратить повторную закачку старых серий можно, отжав галочку в соответствующих местах при запуске нового торрента. По возможности, желательно не удалять старые серии как можно дольше чтобы релизёр не столько продолжал раздавать старые серии, а смог сконцентрироваться на новых.
pb.wtf



Скачать Мир дикого запада через торрент http://pic1.kartinco.top/images/11/nsqii.jpg Скачать фильм Мир дикого запада через торрент бесплантно в хорошем качестве Описание: В футуристическом парке развлечений андроиды на фоне для исторических декораций становятся рабами людей, выполняя рутинные ... 9.1 10 30
Info! Золотая раздача, скачанное не засчитывается.
Торрент: Зарегистрирован [2018-06-25 18:53] · скачан: 550 раз
Статус: √ проверено
Размер: 19.74 GB
Как cкачать? Как скачать Мир дикого запада через торрент | qTorrent

% Раздел Тема Автор DL S | L
Зарубежные сериалы [ 58.73 GB ] Мир дикого запада / Westworld / Сезон: 2 / Серии: 1-10 из 10 [2018 WEBRip 1080p] [MVO] killermax2013 Скачать
1 | 0
Зарубежные сериалы [ 19.86 GB ] Мир Дикого запада / Westworld / Сезон: 2 / Серии: 1-10 из 10 [2018 WEBRip 720p] MVO [Good People] bober100 Скачать
1 | 0
Зарубежные сериалы [ 7.77 GB ] Мир Дикого запада / Westworld / Сезон: 2 / Серии: 1-10 из 10 [2018 WEB-DLRip] MVO [Good People] bober100 Скачать
1 | 0
Зарубежные сериалы [ 197.84 GB ] Мир Дикого запада / Westworld / Сезон: 2 / Серии: 1-10 из 10 [2018 UHD BDRemux 2160p] DUB [Amedia] sheker187 Скачать
6 | 0
Зарубежные сериалы [ 19.44 GB ] Мир дикого запада / Westworld / Сезон: 2 / Серии: 1-10 из 10 [2018 WEB-DL 720p] [MVO] killermax2013 Скачать
1 | 0
Зарубежные сериалы [ 7.7 GB ] Мир дикого запада / Westworld / Сезон: 2 / Серии: 1-10 из 10 [2018 WEB-DLRip] [MVO] killermax2013 Скачать
2 | 0
Зарубежные сериалы [ 8.16 GB ] Мир дикого запада / Westworld / Сезон: 2 / Серии: 1-10 из 10 [2018 WEB-DLRip] DUB [Amedia] bober100 Скачать
3 | 2


Последний раз редактировалось: bober100 (2018-06-25 18:53), всего редактировалось 13 раз(а)

28-11-2019 20:33  

Отключить всю рекламу на сайте

23-04-2018 08:52 Мир дикого запада Скачать торрент  

так плюс же , я пошел смотретьpb.wtf



23-04-2018 22:14 Мир дикого запада Скачать торрент  

Первый сезон был шикарный, надеюсь второй будет нехуже.pb.wtf



24-04-2018 14:32 Мир дикого запада Скачать торрент  

Зашквар. И что теперь все версии с непонятными звуковыми дорожками?pb.wtf



21-05-2018 12:16 Мир дикого запада Скачать торрент  

Второй сезон тупейшый.В 5 ой серии нужен знание английского или японского языка ни смысла, ни вкуса.Бредятина.Дотянул до 5 ой серии-терпение кончилось)))pb.wtf



28-05-2018 20:27 Мир дикого запада Скачать торрент  

Перевод отвратительный, около половины 5 серии не переведено, русские субтитры аналогично есть только при наличии русской озвучкиpb.wtf



25-06-2018 20:16 Мир дикого запада Скачать торрент  

Мегасериал, последняя серия не разочаровала! Продлили на третий сезон, ура! Ждем в 2019 году.pb.wtf



    Дорогой пользователь! Огромная просьба, поблагодарите релизера, оцените раздачу и оставьте свои комментарий, если Вы скачали Мир дикого запада через торрент бесплатно! Внесите свою лепту в развитие PiratBit!
    Комментировать посты могут только пользователи прошедшие не сложную регистрацию
    Показать сообщения:    

    Мир дикого запада через торрент
    Скачать бесплатно Мир дикого запада
    Мир дикого запада скачать торрент
    Мир дикого запада смотреть онлайн
    Cкачать фильм Мир дикого запада бесплатно
    Мир дикого запада скачать торрент в хорошем качестве
    Мир дикого запада смотреть онлайн бесплатно в хорошем качестве


    Вы не можете начинать темы
    Вы не можете отвечать на сообщения
    Вы не можете редактировать свои сообщения
    Вы не можете удалять свои сообщения
    Вы не можете голосовать в опросах
    Вы не можете прикреплять файлы к сообщениям
    Вы можете скачивать файлы