Ссылка на приватное зеркало нашего сайта всего за 1$. Внимание количество ограничено!!!

2 сезон

iTunes

1 сезон

1

iTunes

iTunes

iTunes

1 сезон

RePack

30

ИГРА 18+

pack

ВАЖНО

!!Акция!!

Alien_RageХит недели

RePack

MK11
pack

Забери бонус

RePack

jed

!!Акция!!

Alien_Rage

RePack

fifa19

RePack

Assassins Creed: Odyssey

RePack

NEED FOR SPEED™ PAYBACK

4 сезон

9 сезон

Бесстыжие 9 сезон

Все сериалы

все сериалы на PB.wtf

RePack

FAR CRY 5
  

Огненный ангел / Серии: 1-4 из 4 (Ольга Мотина) [2018, Психологический триллер, WEB-DL 720p] pb.wtf

Огненный ангел через торрент pb.wtf

Размер: 4.21 GB | Добавлен: 2 года 5 мес. назад | Торрент скачан:69 раз
Скачать  

23-04-2018 08:09 Огненный ангел Скачать торрент  

Огненный ангелГод выпуска: 2018
Страна: Россия
Жанр: Психологический триллер
Продолжительность: ~ 00:44:00
Субтитры: отсутствуют

Режиссер: Ольга Мотина



В ролях:

Полина Филоненко, Алёна Савастова, Степан Бекетов, Кирилл Запорожский, Евгений Терских, Дмитрий Поднозов, Оксана Базилевич, Анастасия Шалыгина, Антон Чернов

Описание:

После аварии 11 лет назад Ева Заринская потеряла память. О своем прошлом она знает только по рассказам мужа Дмитрия. Проведя много лет заграницей, супруги возвращаются на родину. С Евой начинают происходить непонятные вещи: снятся странные сны, в памяти всплывают необъяснимые воспоминания, в которых ее преследует образ маленькой дочери. Только, по словам Дмитрия, у Евы никогда не было детей. Но можно ли ему верить? Она все больше сомневается в его словах, мало того, не понимает, кто на самом деле этот человек, с которым живет столько лет. Отчаянно пытаясь вспомнить детали своей прошлого, Ева приступает к расследованию...

Качество: WEB-DL 720p
Формат: MKV

Видео: MPEG-4 AVC, ~ 3200 Кбит/с, 1280x720
Аудио: AC3, 2 ch, 192 Кбит/с
скриншот   скриншот   скриншот   скриншот  

Общее
Уникальный идентификатор : 240428809133791308282803573267213196368 (0xB4E0E7803B5C7834A050307482E61C50)
Полное имя : D:\Огненный ангел (2018),WEB-DL 720p.Files-x\01.Огненный ангел.2018.WEB-DL (720p).Files-x.mkv
Формат : Matroska
Версия формата : Version 2
Размер файла : 1,02 Гбайт
Продолжительность : 44 м. 32 с.
Режим общего битрейта : Постоянный
Общий поток : 3282 Кбит/сек
Дата кодирования : UTC 2018-04-21 21:25:51
Программа кодирования : mkvmerge v7.8.0 ('River Man') 32bit built on Apr 3 2015 12:11:22
Библиотека кодирования : libebml v1.3.1 + libmatroska v1.4.2

Видео
Идентификатор : 1
Формат : AVC
Формат/Информация : Advanced Video Codec
Профиль формата : High@L4.1
Параметр CABAC формата : Да
Параметр RefFrames формата : 4 кадра
Идентификатор кодека : V_MPEG4/ISO/AVC
Продолжительность : 44 м. 32 с.
Вид битрейта : Постоянный
Битрейт : 3025 Кбит/сек
Номинальный битрейт : 3200 Кбит/сек / 3200 Кбит/сек
Ширина : 1280 пикселей
Высота : 720 пикселей
Соотношение сторон : 16:9
Режим частоты кадров : Постоянный
Частота кадров : 25,000 кадров/сек
Цветовое пространство : YUV
Субдискретизация насыщенности : 4:2:0
Битовая глубина : 8 бит
Тип развёртки : Прогрессивная
Бит/(Пиксели*Кадры) : 0.131
Размер потока : 964 Мбайт (92%)
Библиотека кодирования : x264 core 148
Настройки программы : cabac=1 / ref=2 / deblock=1:0:0 / analyse=0x3:0x113 / me=hex / subme=6 / psy=1 / psy_rd=1.00:0.00 / mixed_ref=1 / me_range=16 / chroma_me=1 / trellis=1 / 8x8dct=1 / cqm=0 / deadzone=21,11 / fast_pskip=1 / chroma_qp_offset=-2 / threads=1 / lookahead_threads=1 / sliced_threads=0 / nr=0 / decimate=1 / interlaced=0 / bluray_compat=0 / constrained_intra=0 / bframes=3 / b_pyramid=2 / b_adapt=1 / b_bias=0 / direct=1 / weightb=1 / open_gop=0 / weightp=1 / keyint=250 / keyint_min=25 / scenecut=0 / intra_refresh=0 / rc_lookahead=30 / rc=cbr / mbtree=1 / bitrate=3200 / ratetol=1.0 / qcomp=0.60 / qpmin=0 / qpmax=69 / qpstep=4 / vbv_maxrate=3200 / vbv_bufsize=1600 / nal_hrd=cbr / filler=1 / ip_ratio=1.40 / aq=1:1.00
Default : Да
Forced : Нет

Аудио
Идентификатор : 2
Формат : AC-3
Формат/Информация : Audio Coding 3
Расширение режима : CM (complete main)
Параметр Endianness формата : Big
Идентификатор кодека : A_AC3
Продолжительность : 44 м. 32 с.
Вид битрейта : Постоянный
Битрейт : 192 Кбит/сек
Каналы : 2 канала
Расположение каналов : Front: L R
Частота : 48,0 КГц
Частота кадров : 31,250 кадров/сек (1536 spf)
Метод сжатия : С потерями
Задержка видео : -61 мс.
Размер потока : 61,2 Мбайт (6%)
Default : Да
Forced : Нет

pb.wtf



Скачать Огненный ангел через торрент http://i105.fastpic.ru/big/2018/0421/a8/609e6ce547da673d6aa4cae0ff21cfa8.jpg Скачать фильм Огненный ангел через торрент бесплантно в хорошем качестве Описание: После аварии 11 лет назад Ева Заринская потеряла память. О своем прошлом она знает только по рассказам мужа Дмитрия. Проведя ... 10 10 4
Торрент: Зарегистрирован [2018-04-23 08:09] · скачан: 69 раз
Статус: √ проверено
Размер: 4.21 GB
Как cкачать? Как скачать Огненный ангел через торрент | qTorrent

% Раздел Тема Автор DL S | L
Наши сериалы [ 11.25 GB ] Огненный ангел / Серии: 1-4 из 4 [2018 HDTV 1080i] bober100 Скачать
1 | 0
Наши сериалы [ 2.3 GB ] Огненный ангел / Серии: 1-4 из 4 [2018 Психологический WEB-DLRip-AVC] bober100 Скачать
1 | 0
Наши сериалы [ 2.16 GB ] Огненный ангел / Серии: 1-4 из 4 [2018 Психологический WEB-DLRip] bober100 Скачать
1 | 0
Наши сериалы [ 2.25 GB ] Огненный ангел / Серии: 1-4 из 4 [2018 SATRip-AVC] aleksan55 Скачать
1 | 0
Наши сериалы [ 2.34 GB ] Огненный ангел\Серия 1-4 из 4\ [2018 Психологический SATRip] oleg8 Скачать
1 | 0

28-11-2019 20:33  

Отключить всю рекламу на сайте

    Дорогой пользователь! Огромная просьба, поблагодарите релизера, оцените раздачу и оставьте свои комментарий, если Вы скачали Огненный ангел через торрент бесплатно! Внесите свою лепту в развитие PiratBit!
    Комментировать посты могут только пользователи прошедшие не сложную регистрацию
    Показать сообщения:    

    Огненный ангел через торрент
    Скачать бесплатно Огненный ангел
    Огненный ангел скачать торрент
    Огненный ангел смотреть онлайн
    Cкачать фильм Огненный ангел бесплатно
    Огненный ангел скачать торрент в хорошем качестве
    Огненный ангел смотреть онлайн бесплатно в хорошем качестве


    Вы не можете начинать темы
    Вы не можете отвечать на сообщения
    Вы не можете редактировать свои сообщения
    Вы не можете удалять свои сообщения
    Вы не можете голосовать в опросах
    Вы не можете прикреплять файлы к сообщениям
    Вы можете скачивать файлы