новый адрес
Мега распродажа FORZA HORIZON 4 ULTIMATE+ВСЕ DLC+ОНЛАЙН всего за 499р. 349 руб. (супер цена). Внимание количество ограничено!!!

iTunes

1+1

iTunes

мы

iTunes

1

iTunes

Чернобыль

iTunes

Ральф против интернета

Лицензия

ПШазам

Лицензия

Игра престолов

Лицензия

30
pack

ВАЖНО

!!Акция!!

Alien_RageХит недели

RePack

Resident Evil 21

ИГРА 18+

pack

RePack

Metro:Exodus

!!Акция!!

Alien_Rage

RePack

fifa19

RePack

Assassins Creed: Odyssey

RePack

NEED FOR SPEED™ PAYBACK

3 сезон

9 сезон

Бесстыжие 9 сезон

Все сериалы

все сериалы на PB.wtf

RePack

FAR CRY 5
Ребята, катастрофически не хватает 1900р. для оплаты серверов за Октябрь (всвязи с блокировками трафик упал в 3 раза), 1-2р., выручайте.
  

Конец старой Берёзовки (Виктор Эйсымонт) [1960, СССР, мелодрама, HDTVRip от AVP Studio] pb.wtf

Конец старой Берёзовки через торрент pb.wtf

Размер: 745 MB | Добавлен: 1 год 6 мес. назад | Торрент скачан:16 раз
Скачать  

23-04-2018 09:03 Конец старой Берёзовки Скачать торрент  

Конец старой Берёзовки
Страна: СССР
Производство: Киностудия им. Горького

Жанр: мелодрама
Год выпуска: 1960
Продолжительность: 01:09:19

Перевод: Не требуется
Cубтитры: нет
Оригинальная аудиодорожка: русский

Режиссер: Виктор Эйсымонт

В ролях:
Евгений Буренков, Нина Дорошина, Валентина Владимирова, Владимир Гусев, Татьяна Пельтцер, Стас Лыкин (Лыхин), Алла Гутчина...
Об актёрах подробней

Описание:
Однажды у Борьки, большого проказника и непоседы, появился взрослый друг - строитель Иван Дехтярев (Евгений Буренков). Бывший моряк направил Борькину энергию в нужное русло и сделал его своим помощником. Вскоре в Борькиной семье случилась беда. Его сестра Лиза (Нина Дорошина) скоро станет матерью, а отец будущего ребенка не захотел на ней женится и избегал встреч. Иван попытался соединить молодых, но его попытки оказались безуспешными. Полюбив Лизу, он сделал ей предложение - и вскоре молодая счастливая семья переехала в новый дом.

Источник: HDTV 720p
Качество видео: HDTVRip
Формат видео: AVI

Видео: 720x352 (2,045:1), 25,000 кадров/сек, XviD ~ 1302 kbps avg, 0.205 bit/pixel
Аудио: 48 kHz, Dolby Digital AC3 2.0, 192 kbps

Раздача от:
Общее
Полное имя : Konec.staroy.Beryozovki.1960.HDTVRip_[New-team]_by_AVP_Studio.avi
Формат : AVI
Формат/Информация : Audio Video Interleave
Размер файла : 745 Мбайт
Продолжительность : 1 ч. 9 м.
Общий поток : 1504 Кбит/сек
Программа кодирования : VirtualDubMod 1.5.10.3 | www.virtualdub-fr.org || (build 2550/release)
Библиотека кодирования : VirtualDubMod build 2550/release

Видео
Идентификатор : 0
Формат : MPEG-4 Visual
Профиль формата : Advanced Simple@L5
Настройки формата : BVOP1 / Custom Matrix
Параметр BVOP формата : 1
Параметр QPel формата : Нет
Параметр GMC формата : Без точки перехода
Параметр матрицы формата : Выборочная
Идентификатор кодека : XVID
Идентификатор кодека/Подсказка : XviD
Продолжительность : 1 ч. 9 м.
Битрейт : 1302 Кбит/сек
Ширина : 720 пикселей
Высота : 352 пикселя
Соотношение сторон : 2,045
Частота кадров : 25,000 кадров/сек
Цветовое пространство : YUV
Субдискретизация насыщенности : 4:2:0
Битовая глубина : 8 бит
Тип развёртки : Прогрессивная
Метод сжатия : С потерями
Бит/(Пиксели*Кадры) : 0.205
Размер потока : 645 Мбайт (87%)
Библиотека кодирования : XviD 73

Аудио
Идентификатор : 1
Формат : AC-3
Формат/Информация : Audio Coding 3
Идентификатор кодека : 2000
Продолжительность : 1 ч. 9 м.
Вид битрейта : Постоянный
Битрейт : 192 Кбит/сек
Каналы : 2 канала
Расположение каналов : Front: L R
Частота : 48,0 КГц
Частота кадров : 31,250 кадров/сек (1536 SPF)
Битовая глубина : 16 бит
Метод сжатия : С потерями
Размер потока : 95,2 Мбайт (13%)
Выравнивание : Разделение по промежуткам
Продолжительность промежутка : 40 мс. (1,00 видеокадр)
Время предзагрузки промежутка : 500 мс
pb.wtf



Скачать Конец старой Берёзовки через торрент http://i6.imageban.ru/out/2018/04/23/149d3faabafb9f45ce5b4a6203770264.png Скачать фильм Конец старой Берёзовки через торрент бесплантно в хорошем качестве Описание:Однажды у Борьки, большого проказника и непоседы, появился взрослый друг - строитель Иван Дехтярев (Евгений Буренков). Бывший ... 10 10 1
Info! Золотая раздача, скачанное не засчитывается.
Торрент: Зарегистрирован [2018-04-23 09:03] · скачан: 16 раз
Статус: √ проверено
Размер: 745 MB
Как cкачать? Как скачать Конец старой Берёзовки через торрент | qTorrent

% Раздел Тема Автор DL S | L
Кино СССР [ 745 MB ] Конец старой Берёзовки [1960 СССР HDTVRip-AVC от AVP Studio] AVP Studio Скачать
1 | 0


>> Регистрируемся здесь <<






Отзывы и комментарии о схеме читаем и пишем здесь: ---> Отзывы и комментарии о схеме

Новые благодарочки в телеграм довольных пользователей:
скриншот   скриншот   скриншот   скриншот   скриншот
    Дорогой пользователь! Огромная просьба, поблагодарите релизера, оцените раздачу и оставьте свои комментарий, если Вы скачали Конец старой Берёзовки через торрент бесплатно! Внесите свою лепту в развитие PiratBit!
    Комментировать посты могут только пользователи прошедшие не сложную регистрацию
    Показать сообщения:    

    Конец старой Берёзовки через торрент
    Скачать бесплатно Конец старой Берёзовки
    Конец старой Берёзовки скачать торрент
    Конец старой Берёзовки смотреть онлайн
    Cкачать фильм Конец старой Берёзовки бесплатно
    Конец старой Берёзовки скачать торрент в хорошем качестве
    Конец старой Берёзовки смотреть онлайн бесплатно в хорошем качестве


    Вы не можете начинать темы
    Вы не можете отвечать на сообщения
    Вы не можете редактировать свои сообщения
    Вы не можете удалять свои сообщения
    Вы не можете голосовать в опросах
    Вы не можете прикреплять файлы к сообщениям
    Вы можете скачивать файлы