Ссылка на приватное зеркало всего за 1$. Внимание количество ограничено!!!

iTunes

1+1

iTunes

мы

WEB-DL

1

iTunes

Чернобыль

iTunes

Ральф против интернета

Лицензия

ПШазам

Лицензия

Оно 2

Лицензия

30
pack

Вам бонус

ВАЖНО

!!Акция!!

Alien_RageХит недели

RePack

Resident Evil 21

ИГРА 18+

pack

RePack

jed

!!Акция!!

Alien_Rage

RePack

fifa19

RePack

Assassins Creed: Odyssey

RePack

NEED FOR SPEED™ PAYBACK

3 сезон

9 сезон

Бесстыжие 9 сезон

Все сериалы

все сериалы на PB.wtf

RePack

FAR CRY 5
Ребята, катастрофически не хватает 1900р. для оплаты серверов за Октябрь (всвязи с блокировками трафик упал в 3 раза), 1-2р., выручайте.
  

Кавалерия / 12 Strong (Николай Фьюлси) [2018, боевик, драма, военный, история, BDRip-AVC] MVO [HDrezka Studio] - ExKinoRay pb.wtf

Кавалерия через торрент pb.wtf

Раздают: 1 [ 0 KB/s ]
Размер: 2.81 GB | Добавлен: 1 год 7 мес. назад | Торрент скачан:572 раза
Скачать  

23-04-2018 12:14 Кавалерия Скачать торрент  

Информация о фильме
Название: Кавалерия (Двенадцать сильных)
Оригинальное название: 12 Strong
Год выпуска: 2018
Жанр: Боевик, драма, военный, история
Страна: США
Студия: Alcon Entertainment, Lionsgate
Продолжительность: 02:09:51
Перевод: Профессиональный (многоголосый, закадровый) | HDrezka Studio
Режиссер: Николай Фьюлси
В ролях: Крис Хемсворт, Майкл Шеннон, Уильям Фихтнер, Эльза Патаки, Тейлор Шеридан, Джофф Стульц, Майкл Пенья, Роб Риггл, Треванте Роудс, Джек Кеси

Описание:
Правдивая драма об отряде американских солдат специального назначения, которых после трагедии 11 сентября 2001 года перебрасывают на антитеррористическую миссию в Афганистан. Элитные бойцы, вынужденные наступать верхом на лошадях, сталкиваются с целой армией талибов.

rating

Файл
Формат: MKV
Качество: BDRip-AVC
Видео: MPEG-4 AVC, 1024x426 (2.40:1), 23.976 fps, ~ 2462 kbps avg, 0.235 bit/pixel
Аудио 1: 48 kHz, AC3, 2.0, 192 Kbps | RUS |
Аудио 2: 48 kHz, AC3, 5.1, 448 Kbps | ENG |
Субтитры: Английские

Сохранены оригинальные чаптеры как на Blu-Ray.

Без какой-либо рекламы!
General
Unique ID : 193956881890558256610523606787772049610 (0x91EABC96C0A33819B07F80CEA56AE8CA)
Complete name : D:\12.StrOng.2018.MVO.BDRip.AVC.ExKinoRay.mkv
Format : Matroska
Format version : Version 2
File size : 2.81 GiB
Duration : 2 h 9 min
Overall bit rate : 3 101 kb/s
Movie name : 12 Strong 2018 from ExKinoRay
Encoded date : UTC 2018-04-23 11:30:48
Writing application : mkvmerge v5.6.0 ('Kenya Kane') built on May 27 2012 16:44:04
Writing library : libebml v1.2.3 + libmatroska v1.3.0

Video
ID : 1
Format : AVC
Format/Info : Advanced Video Codec
Format profile : High@L4.1
Format settings, CABAC : Yes
Format settings, ReFrames : 12 frames
Codec ID : V_MPEG4/ISO/AVC
Duration : 2 h 9 min
Bit rate : 2 462 kb/s
Width : 1 024 pixels
Height : 426 pixels
Display aspect ratio : 2.40:1
Frame rate mode : Constant
Frame rate : 23.976 (23976/1000) FPS
Color space : YUV
Chroma subsampling : 4:2:0
Bit depth : 8 bits
Scan type : Progressive
Bits/(Pixel*Frame) : 0.235
Stream size : 2.18 GiB (77%)
Title : Enigma
Writing library : x264 core 152 r2851 ba24899
Encoding settings : cabac=1 / ref=12 / deblock=1:-2:-3 / analyse=0x3:0x113 / me=umh / subme=10 / psy=1 / psy_rd=1.05:0.10 / mixed_ref=1 / me_range=32 / chroma_me=1 / trellis=2 / 8x8dct=1 / cqm=0 / deadzone=21,11 / fast_pskip=0 / chroma_qp_offset=-3 / threads=12 / lookahead_threads=3 / sliced_threads=0 / nr=0 / decimate=0 / interlaced=0 / bluray_compat=0 / constrained_intra=0 / bframes=12 / b_pyramid=2 / b_adapt=2 / b_bias=0 / direct=3 / weightb=1 / open_gop=0 / weightp=2 / keyint=240 / keyint_min=23 / scenecut=40 / intra_refresh=0 / rc_lookahead=40 / rc=2pass / mbtree=0 / bitrate=2462 / ratetol=1.0 / qcomp=0.60 / qpmin=0 / qpmax=51 / qpstep=4 / cplxblur=20.0 / qblur=0.5 / vbv_maxrate=50000 / vbv_bufsize=62500 / nal_hrd=none / filler=0 / ip_ratio=1.40 / pb_ratio=1.30 / aq=3:0.90
Language : English
Default : Yes
Forced : No
Color range : Limited
Color primaries : BT.709
Transfer characteristics : BT.709
Matrix coefficients : BT.709

Audio #1
ID : 2
Format : AC-3
Format/Info : Audio Coding 3
Mode extension : CM (complete main)
Format settings, Endianness : Big
Codec ID : A_AC3
Duration : 2 h 9 min
Bit rate mode : Constant
Bit rate : 192 kb/s
Channel(s) : 2 channels
Channel positions : Front: L R
Sampling rate : 48.0 kHz
Frame rate : 31.250 FPS (1536 spf)
Compression mode : Lossy
Stream size : 178 MiB (6%)
Title : MVO (HDRezka Studio)
Language : Russian
Default : Yes
Forced : No

Audio #2
ID : 3
Format : AC-3
Format/Info : Audio Coding 3
Mode extension : CM (complete main)
Format settings, Endianness : Big
Codec ID : A_AC3
Duration : 2 h 9 min
Bit rate mode : Constant
Bit rate : 448 kb/s
Channel(s) : 6 channels
Channel positions : Front: L C R, Side: L R, LFE
Sampling rate : 48.0 kHz
Frame rate : 31.250 FPS (1536 spf)
Compression mode : Lossy
Stream size : 416 MiB (14%)
Language : English
Default : No
Forced : No

Text
ID : 4
Format : UTF-8
Codec ID : S_TEXT/UTF8
Codec ID/Info : UTF-8 Plain Text
Language : English
Default : No
Forced : No

Menu
00:00:00.000 : en:Chapter 01
00:12:41.344 : en:Chapter 02
00:21:53.729 : en:Chapter 03
00:32:56.600 : en:Chapter 04
00:44:03.808 : en:Chapter 05
00:56:21.878 : en:Chapter 06
01:10:04.867 : en:Chapter 07
01:21:03.942 : en:Chapter 08
01:27:28.827 : en:Chapter 09
01:41:19.782 : en:Chapter 10
01:50:16.276 : en:Chapter 11
02:01:16.561 : en:Chapter 12
Релиз от:

Автор релиза: pb.wtf



Скачать Кавалерия через торрент http://i104.fastpic.ru/big/2018/0414/85/d5376b3387f9db57193627b1bc3f9585.jpg Скачать фильм Кавалерия через торрент бесплантно в хорошем качестве Описание: Правдивая драма об отряде американских солдат специального назначения, которых после трагедии 11 сентября 2001 года перебрасывают ... 9.5 10 19
Info! Золотая раздача, скачанное не засчитывается.
Торрент: Зарегистрирован [2018-04-23 12:14] · скачан: 572 раз
Статус: T временная
Размер: 2.81 GB
Как cкачать? Как скачать Кавалерия через торрент | qTorrent

% Раздел Тема Автор DL S | L

28-11-2019 20:33  

Отключить всю рекламу на сайте

23-04-2018 18:49 Кавалерия Скачать торрент  

Обоссаные пендосы, пригрели алькаиду, обули, одели, накормили, те им теракт устроили, в ответ пендосы разбомбили целую страну, и вояки наверно здесь - герои... Наверно очень крутое кино... Мимо!pb.wtf



23-04-2018 20:54 Кавалерия Скачать торрент  

Как пиндосы научили талибановцев ростить мак голландских сортов , но типа того там перестрелки устраивали для вида .pb.wtf



25-04-2018 13:18 Кавалерия Скачать торрент  

а фильм то как, стоит смотреть??pb.wtf



    Дорогой пользователь! Огромная просьба, поблагодарите релизера, оцените раздачу и оставьте свои комментарий, если Вы скачали Кавалерия через торрент бесплатно! Внесите свою лепту в развитие PiratBit!
    Комментировать посты могут только пользователи прошедшие не сложную регистрацию
    Показать сообщения:    

    Кавалерия через торрент
    Скачать бесплатно Кавалерия
    Кавалерия скачать торрент
    Кавалерия смотреть онлайн
    Cкачать фильм Кавалерия бесплатно
    Кавалерия скачать торрент в хорошем качестве
    Кавалерия смотреть онлайн бесплатно в хорошем качестве


    Вы не можете начинать темы
    Вы не можете отвечать на сообщения
    Вы не можете редактировать свои сообщения
    Вы не можете удалять свои сообщения
    Вы не можете голосовать в опросах
    Вы не можете прикреплять файлы к сообщениям
    Вы можете скачивать файлы