новый адрес
Ссылка на приватное зеркало всего за 1$. Внимание количество ограничено!!!

iTunes

1+1

iTunes

мы

WEB-DL

1

iTunes

Чернобыль

iTunes

Ральф против интернета

Лицензия

ПШазам

Лицензия

Оно 2

Лицензия

30
pack

Вам бонус

ВАЖНО

!!Акция!!

Alien_RageХит недели

RePack

Resident Evil 21

ИГРА 18+

pack

RePack

jed

!!Акция!!

Alien_Rage

RePack

fifa19

RePack

Assassins Creed: Odyssey

RePack

NEED FOR SPEED™ PAYBACK

3 сезон

9 сезон

Бесстыжие 9 сезон

Все сериалы

все сериалы на PB.wtf

RePack

FAR CRY 5
Ребята, катастрофически не хватает 1900р. для оплаты серверов за Октябрь (всвязи с блокировками трафик упал в 3 раза), 1-2р., выручайте.
  

В пустыне смерти / Into the Badlands / Сезон: 3 / Серии: 1-16 из 16 (Дэвид Добкин) [2018, Боевик, драма, приключения, WEBRip 1080p] MVO [BaibaKo] pb.wtf

В пустыне смерти через торрент pb.wtf

Размер: 55.19 GB | Добавлен: 5 мес. 27 д. назад | Торрент скачан:3 раза
Скачать  

23-04-2018 14:21 В пустыне смерти Скачать торрент  

В пустыне смерти / Into the Badlands Год выпуска: 2018
Страна: США
Жанр: Боевик, драма, приключения
Продолжительность: ~00:45:00 серия
Перевод: Профессиональный многоголосый |
Субтитры: отсутствуют

Режиссер: Дэвид Добкин

rating

В ролях:

Дэниэл Ву, Орла Брэйди, Сара Болджер, Арамис Найт, Эмили Бичем, Оливер Старк, Мадлен Манток, Элли Иоаннидес, Мартон Чокаш, Майкл Сил, Стивен Лэнг, Эллен Холлман, Тересса Лиэн, Джерри Таббс, Хайлен Бойд, Лэнс Хенриксен, Джастин Лебрун

Описание:

Приключенческий боевик о двух друзьях. В пустыне смерти, какие испытания предстоит пройти главным героям на пути просвещения. Ради обретения высшей мудрости мастер боевых искусств Санни и его юный напарник решают пройти через неизведанные земли. Они знают, что там их будут встречать враждебно, но ради высшей цели главные герои готовы вынести всё. В основу сюжета сериала был положен китайский роман под названием «Путешествие на Запад». Во время путешествия Санни покажет в полной мере своё мастерство, а его юный друг сможет многому научиться, и владению собственным телом, и контролю над собственным духом.

Качество: WEBRip 1080p
Формат: MKV

Видео: MPEG-4 AVC, ~ 9302 Кбит/с, 1920x1080
Аудио#1: Русский (AC3, 6 ch, 640 Кбит/с)
Аудио#2: английский (AC3, 6 ch, 640 Кбит/с)

Общее
Уникальный идентификатор : 247652975155129994815595761323896568913 (0xBA503A6295B82C4EB7F24FB12B617C51)
Полное имя : D:\Into.the.Badlands.s03.HD1080p.WEBRip.Rus.Eng.BaibaKo.tv\Into.the.Badlands.s03e01.PROPER.HD1080p.WEBRip.Rus.Eng.BaibaKo.tv.mkv
Формат : Matroska
Версия формата : Version 4 / Version 2
Размер файла : 3,20 Гбайт
Продолжительность : 43 м. 18 с.
Общий поток : 10,6 Мбит/сек
Дата кодирования : UTC 2018-04-30 13:07:09
Программа кодирования : mkvmerge v18.0.0 ('Apricity') 64-bit
Библиотека кодирования : libebml v1.3.5 + libmatroska v1.4.8

Видео
Идентификатор : 1
Формат : AVC
Формат/Информация : Advanced Video Codec
Профиль формата : High@L4
Параметр CABAC формата : Да
Параметр RefFrames формата : 4 кадра
Идентификатор кодека : V_MPEG4/ISO/AVC
Продолжительность : 43 м. 18 с.
Битрейт : 9302 Кбит/сек
Ширина : 1920 пикселей
Высота : 1080 пикселей
Соотношение сторон : 16:9
Режим частоты кадров : Постоянный
Частота кадров : 23,976 (24000/1001) кадра/сек
Цветовое пространство : YUV
Субдискретизация насыщенности : 4:2:0
Битовая глубина : 8 бит
Тип развёртки : Прогрессивная
Бит/(Пиксели*Кадры) : 0.187
Размер потока : 2,81 Гбайт (88%)
Библиотека кодирования : x264 core 152 r2851 ba24899
Настройки программы : cabac=1 / ref=3 / deblock=1:0:0 / analyse=0x3:0x113 / me=hex / subme=7 / psy=1 / psy_rd=1.00:0.00 / mixed_ref=1 / me_range=16 / chroma_me=1 / trellis=1 / 8x8dct=1 / cqm=0 / deadzone=21,11 / fast_pskip=1 / chroma_qp_offset=-2 / threads=30 / lookahead_threads=5 / sliced_threads=0 / nr=0 / decimate=1 / interlaced=0 / bluray_compat=0 / constrained_intra=0 / bframes=3 / b_pyramid=2 / b_adapt=1 / b_bias=0 / direct=1 / weightb=1 / open_gop=0 / weightp=2 / keyint=240 / keyint_min=23 / scenecut=40 / intra_refresh=0 / rc_lookahead=40 / rc=crf / mbtree=1 / crf=18.0 / qcomp=0.60 / qpmin=0 / qpmax=69 / qpstep=4 / ip_ratio=1.40 / aq=1:1.00
Default : Нет
Forced : Нет

Аудио #1
Идентификатор : 2
Формат : AC-3
Формат/Информация : Audio Coding 3
Расширение режима : CM (complete main)
Параметр Endianness формата : Big
Идентификатор кодека : A_AC3
Продолжительность : 43 м. 18 с.
Вид битрейта : Постоянный
Битрейт : 640 Кбит/сек
Каналы : 6 каналов
Расположение каналов : Front: L C R, Side: L R, LFE
Частота : 48,0 КГц
Частота кадров : 31,250 кадров/сек (1536 spf)
Метод сжатия : С потерями
Размер потока : 198 Мбайт (6%)
Язык : Russian
Default : Да
Forced : Нет

Аудио #2
Идентификатор : 3
Формат : AC-3
Формат/Информация : Audio Coding 3
Расширение режима : CM (complete main)
Параметр Endianness формата : Big
Идентификатор кодека : A_AC3
Продолжительность : 43 м. 18 с.
Вид битрейта : Постоянный
Битрейт : 640 Кбит/сек
Каналы : 6 каналов
Расположение каналов : Front: L C R, Side: L R, LFE
Частота : 48,0 КГц
Частота кадров : 31,250 кадров/сек (1536 spf)
Метод сжатия : С потерями
Размер потока : 198 Мбайт (6%)
Язык : English
Default : Нет
Forced : Нет

Внимание! Раздача ведётся путём добавления новых серий; при каждом добавлении создаётся новый торрент. Чтобы начать докачку новой серии, пользователям необходимо сделать следующее:
(1) остановить скачивание,
(2) удалить старый торрент у себя из клиента (старые серии удалять не надо),
(3) скачать новый торрент и запустить его у себя в клиенте вместо старого, при этом указать клиенту путь в старую папку куда и должно происходить скачивание новых серий.
Ваш клиент при этом должен произвести хеширование (проверку) старой папки (если не производит сам - помогите ему сделать это), и будет докачивать только те серии которых у вас ещё нет. Старые серии при этом не удаляются, а продолжают раздаваться!
Eсли вы уже удалили старые серии, то предотвратить повторную закачку старых серий можно, отжав галочку в соответствующих местах при запуске нового торрента. По возможности, желательно не удалять старые серии как можно дольше чтобы релизёр не столько продолжал раздавать старые серии, а смог сконцентрироваться на новых.
pb.wtf



Скачать В пустыне смерти через торрент http://pic1.kartinco.top/images/11/9t431.jpg Скачать фильм В пустыне смерти через торрент бесплантно в хорошем качестве Описание: Приключенческий боевик о двух друзьях. В пустыне смерти, какие испытания предстоит пройти главным героям на пути просвещения. ... 10 10 17
Info! Золотая раздача, скачанное не засчитывается.
Торрент: Зарегистрирован [2019-06-11 10:57] · скачан: 3 раз
Статус: √ проверено
Размер: 55.19 GB
Как cкачать? Как скачать В пустыне смерти через торрент | qTorrent

% Раздел Тема Автор DL S | L
Зарубежные сериалы [ 8.3 GB ] В пустыне смерти / Into the Badlands / Сезон: 3 / Серии: 1-16 из 16 [2018-2019 WEB-DLRip] [MVO] killermax2013 Скачать
2 | 0
Зарубежные сериалы [ 25.76 GB ] В пустыне смерти / Into the Badlands / Сезон: 3 / Серии: 1-16 из 16 [2019 WEB-DL 720p] [MVO] killermax2013 Скачать
2 | 0
Фильмы с украинским озвучиванием [ 50.96 GB ] В пустыне смерти / Into the Badlands / Сезон: 3 / Серии: 1-16 из 16 [2018-2019 WEB-DL 1080p] [Ukr MVO] killermax2013 Скачать
1 | 0
Зарубежные сериалы [ 53.28 GB ] В пустыне смерти / Into the Badlands / Сезон: 3 / Серии: 1-16 из 16 [2018-2019 WEB-DL 1080p] [MVO] killermax2013 Скачать
2 | 0
Зарубежные сериалы [ 17.74 GB ] В пустыне смерти / Into the Badlands / Сезон: 3 / Серии: 1-12 из 16 [2018 WEB-DL 720p] MVO [NewStudio] bober100 Скачать
1 | 0
Зарубежные сериалы [ 5.03 GB ] В пустыне смерти / Into the Badlands / Сезон: 3 / Серии: 1-10 из 16 [2018 WEB-DLRip] MVO [Newstudio] bober100 Скачать
1 | 0
Зарубежные сериалы [ 22.71 GB ] В пустыне смерти / Into the Badlands / Сезон: 3 / Серии: 1-7 из 16 [2018 WEB-DL 1080p] [MVO] killermax2013 Скачать
1 | 0


Последний раз редактировалось: bober100 (2019-06-11 10:57), всего редактировалось 2 раз(а)

28-11-2019 20:33  

Отключить всю рекламу на сайте

21-04-2019 04:13 В пустыне смерти Скачать торрент  

больше не буду эту релиз группу качать. реклама в пол экранаpb.wtf



    Дорогой пользователь! Огромная просьба, поблагодарите релизера, оцените раздачу и оставьте свои комментарий, если Вы скачали В пустыне смерти через торрент бесплатно! Внесите свою лепту в развитие PiratBit!
    Комментировать посты могут только пользователи прошедшие не сложную регистрацию
    Показать сообщения:    

    В пустыне смерти через торрент
    Скачать бесплатно В пустыне смерти
    В пустыне смерти скачать торрент
    В пустыне смерти смотреть онлайн
    Cкачать фильм В пустыне смерти бесплатно
    В пустыне смерти скачать торрент в хорошем качестве
    В пустыне смерти смотреть онлайн бесплатно в хорошем качестве


    Вы не можете начинать темы
    Вы не можете отвечать на сообщения
    Вы не можете редактировать свои сообщения
    Вы не можете удалять свои сообщения
    Вы не можете голосовать в опросах
    Вы не можете прикреплять файлы к сообщениям
    Вы можете скачивать файлы