Ссылка на приватное зеркало нашего сайта всего за 1$. Внимание количество ограничено!!!

2 сезон

iTunes

1 сезон

1

2 сезон

2 сезон

iTunes

1 сезон

RePack

30

Новинка

ВАЖНО

ИГРА 18+

pack

RePack

MK11
pack

Забери бонус

RePack

jed

!!Акция!!

Alien_Rage

RePack

fifa19

RePack

Assassins Creed: Odyssey

RePack

NEED FOR SPEED™ PAYBACK

4 сезон

9 сезон

Бесстыжие 9 сезон

Все сериалы

все сериалы на PB.wtf

RePack

FAR CRY 5
  

Мир дикого запада / Westworld / Сезон: 2 / Серии: 1-10 из 10 (Джонатан Нолан, Джонни Кэмпбелл, Ричард Дж. Льюис) [2018, фантастика, триллер, вестерн, WEBRip-AVC] MVO [Baibako] pb.wtf

Мир дикого запада через торрент pb.wtf

Размер: 8.79 GB | Добавлен: 2 года 5 мес. назад | Торрент скачан:85 раз
Скачать  

23-04-2018 19:25 Мир дикого запада Скачать торрент  

Мир дикого запада / Westworld
Год выпуска: 2018
Страна: США
Жанр: фантастика, триллер, вестерн
Продолжительность: ~ 00:43:00 серия
Перевод: Профессиональный многоголосый |
Субтитры: отсутствуют

Режиссер: Джонатан Нолан, Джонни Кэмпбелл, Ричард Дж. Льюис

rating

В ролях:


Эван Рэйчел Вуд (Dolores Abernathy), Тэнди Ньютон (Maeve Millay), Джеффри Райт (Bernard Lowe), Джеймс Марсден (Teddy Flood), Эд Харрис (Man in Black), Талула Райли (Angela), Луис Хертэм (Peter Abernathy), Энтони Хопкинс (Dr. Robert Ford), Дэниэл ТуФизерс (Ghost Nation Warrior), Люк Хемсворт (Ashley Stubbs), Анджела Сарафян (Clementine Pennyfeather), Джимми Симпсон (William)
Описание:

В футуристическом парке развлечений андроиды на фоне для исторических декораций становятся рабами людей, выполняя рутинные задания, пока в один момент сбой в программе не превращает их в опасных убийц.

Качество: WEBRip-AVC
Формат: MP4

Видео: AVC Main@L3.2 1511 Кбит/сек 720x400 (1.800) 23.976 кадра/сек
Аудио#1: ru: AAC LC, 192 Кбит/сек 2 CH, 48,0 КГц
Аудио#2: en: AAC LC 192 Кбит/сек 2 CH, 48,0 КГц
скриншот   скриншот   скриншот   скриншот   скриншот  

Общее
Полное имя : D:\Westworld.s02.WEBRip.x264.Rus.Eng.BaibaKo.tv\Westworld.s02e01.WEBRip.x264.Rus.Eng.BaibaKo.tv.mp4
Формат : MPEG-4
Профиль формата : Base Media
Идентификатор кодека : isom (isom)
Размер файла : 1021 Мбайт
Продолжительность : 1 ч. 15 м.
Режим общего битрейта : Переменный
Общий поток : 1900 Кбит/сек
Дата кодирования : UTC 2018-04-23 13:52:22
Дата пометки : UTC 2018-04-23 13:52:22

Видео
Идентификатор : 1
Формат : AVC
Формат/Информация : Advanced Video Codec
Профиль формата : Main@L3.2
Параметр CABAC формата : Да
Параметр RefFrames формата : 3 кадра
Идентификатор кодека : avc1
Идентификатор кодека/Информация : Advanced Video Coding
Продолжительность : 1 ч. 15 м.
Битрейт : 1511 Кбит/сек
Максимальный битрейт : 7734 Кбит/сек
Ширина : 720 пикселей
Высота : 400 пикселей
Соотношение сторон : 16:9
Режим частоты кадров : Постоянный
Частота кадров : 23,976 (24000/1001) кадра/сек
Цветовое пространство : YUV
Субдискретизация насыщенности : 4:2:0
Битовая глубина : 8 бит
Тип развёртки : Прогрессивная
Бит/(Пиксели*Кадры) : 0.219
Размер потока : 812 Мбайт (80%)
Дата кодирования : UTC 2018-04-23 11:09:31
Дата пометки : UTC 2018-04-23 13:52:29

Аудио #1
Идентификатор : 2
Формат : AAC
Формат/Информация : Advanced Audio Codec
Профиль формата : LC
Идентификатор кодека : 40
Продолжительность : 1 ч. 15 м.
Вид битрейта : Переменный
Битрейт : 192 Кбит/сек
Максимальный битрейт : 200 Кбит/сек
Каналы : 2 канала
Расположение каналов : Front: L R
Частота : 48,0 КГц
Частота кадров : 46,875 кадров/сек (1024 spf)
Метод сжатия : С потерями
Размер потока : 103 Мбайт (10%)
Язык : Russian
Дата кодирования : UTC 2018-04-23 13:45:13
Дата пометки : UTC 2018-04-23 13:52:29

Аудио #2
Идентификатор : 3
Формат : AAC
Формат/Информация : Advanced Audio Codec
Профиль формата : LC
Идентификатор кодека : 40
Продолжительность : 1 ч. 15 м.
Вид битрейта : Переменный
Битрейт : 192 Кбит/сек
Максимальный битрейт : 200 Кбит/сек
Каналы : 2 канала
Расположение каналов : Front: L R
Частота : 48,0 КГц
Частота кадров : 46,875 кадров/сек (1024 spf)
Метод сжатия : С потерями
Размер потока : 103 Мбайт (10%)
Язык : English
Дата кодирования : UTC 2018-04-23 13:45:13
Дата пометки : UTC 2018-04-23 13:52:29

Внимание! Раздача ведётся путём добавления новых серий; при каждом добавлении создаётся новый торрент. Чтобы начать докачку новой серии, пользователям необходимо сделать следующее:
(1) остановить скачивание,
(2) удалить старый торрент у себя из клиента (старые серии удалять не надо),
(3) скачать новый торрент и запустить его у себя в клиенте вместо старого, при этом указать клиенту путь в старую папку куда и должно происходить скачивание новых серий.
Ваш клиент при этом должен произвести хеширование (проверку) старой папки (если не производит сам - помогите ему сделать это), и будет докачивать только те серии которых у вас ещё нет. Старые серии при этом не удаляются, а продолжают раздаваться!
Eсли вы уже удалили старые серии, то предотвратить повторную закачку старых серий можно, отжав галочку в соответствующих местах при запуске нового торрента. По возможности, желательно не удалять старые серии как можно дольше чтобы релизёр не столько продолжал раздавать старые серии, а смог сконцентрироваться на новых.
pb.wtf



Скачать Мир дикого запада через торрент http://i3.imageban.ru/out/2018/04/23/ad8d04f48fe700f080a4e649b04596e7.png Скачать фильм Мир дикого запада через торрент бесплантно в хорошем качестве Описание: В футуристическом парке развлечений андроиды на фоне для исторических декораций становятся рабами людей, выполняя рутинные ... 10 10 8
Торрент: Зарегистрирован [2018-06-25 19:09] · скачан: 85 раз
Статус: √ проверено
Размер: 8.79 GB
Как cкачать? Как скачать Мир дикого запада через торрент | qTorrent

% Раздел Тема Автор DL S | L
Зарубежные сериалы [ 58.73 GB ] Мир дикого запада / Westworld / Сезон: 2 / Серии: 1-10 из 10 [2018 WEBRip 1080p] [MVO] killermax2013 Скачать
1 | 0
Зарубежные сериалы [ 19.86 GB ] Мир Дикого запада / Westworld / Сезон: 2 / Серии: 1-10 из 10 [2018 WEBRip 720p] MVO [Good People] bober100 Скачать
1 | 0
Зарубежные сериалы [ 7.77 GB ] Мир Дикого запада / Westworld / Сезон: 2 / Серии: 1-10 из 10 [2018 WEB-DLRip] MVO [Good People] bober100 Скачать
1 | 0
Зарубежные сериалы [ 197.84 GB ] Мир Дикого запада / Westworld / Сезон: 2 / Серии: 1-10 из 10 [2018 UHD BDRemux 2160p] DUB [Amedia] sheker187 Скачать
1 | 0
Зарубежные сериалы [ 19.44 GB ] Мир дикого запада / Westworld / Сезон: 2 / Серии: 1-10 из 10 [2018 WEB-DL 720p] [MVO] killermax2013 Скачать
1 | 0
Зарубежные сериалы [ 7.7 GB ] Мир дикого запада / Westworld / Сезон: 2 / Серии: 1-10 из 10 [2018 WEB-DLRip] [MVO] killermax2013 Скачать
1 | 0
Зарубежные сериалы [ 8.16 GB ] Мир дикого запада / Westworld / Сезон: 2 / Серии: 1-10 из 10 [2018 WEB-DLRip] DUB [Amedia] bober100 Скачать
1 | 0


Последний раз редактировалось: bober100 (2018-06-25 19:09), всего редактировалось 3 раз(а)

28-11-2019 20:33  

Отключить всю рекламу на сайте

24-04-2018 04:33 Мир дикого запада Скачать торрент  

скачал 1 гб версию 2 сез 1 серия , видио и звук не синхронны.pb.wtf



    Дорогой пользователь! Огромная просьба, поблагодарите релизера, оцените раздачу и оставьте свои комментарий, если Вы скачали Мир дикого запада через торрент бесплатно! Внесите свою лепту в развитие PiratBit!
    Комментировать посты могут только пользователи прошедшие не сложную регистрацию
    Показать сообщения:    

    Мир дикого запада через торрент
    Скачать бесплатно Мир дикого запада
    Мир дикого запада скачать торрент
    Мир дикого запада смотреть онлайн
    Cкачать фильм Мир дикого запада бесплатно
    Мир дикого запада скачать торрент в хорошем качестве
    Мир дикого запада смотреть онлайн бесплатно в хорошем качестве


    Вы не можете начинать темы
    Вы не можете отвечать на сообщения
    Вы не можете редактировать свои сообщения
    Вы не можете удалять свои сообщения
    Вы не можете голосовать в опросах
    Вы не можете прикреплять файлы к сообщениям
    Вы можете скачивать файлы