Ссылка на приватное зеркало нашего сайта всего за 1$. Внимание количество ограничено!!!

2 сезон

iTunes

1 сезон

1

2 сезон

2 сезон

iTunes

1 сезон

RePack

30

Ultimate

ВАЖНО

ИГРА 18+

pack

RePack

MK11
pack

Забери бонус

RePack

jed

!!Акция!!

Alien_Rage

RePack

fifa19

RePack

Assassins Creed: Odyssey

RePack

NEED FOR SPEED™ PAYBACK

4 сезон

9 сезон

Бесстыжие 9 сезон

Все сериалы

все сериалы на PB.wtf

RePack

FAR CRY 5
  

Террор / The Terror / Сезон: 1 / Серии: 1-10 из 10 (Тим Милантс, Эдвард Бергер, Серджо Мимика-Геззан) [2018, ужасы, драма, WEBRip] MVO ["Profix Media"] pb.wtf

Террор через торрент pb.wtf

Размер: 3.92 GB | Добавлен: 2 года 7 мес. назад | Торрент скачан:55 раз
Скачать  

24-04-2018 05:19 Террор Скачать торрент  

Террор / The Terror
Год выпуска: 2018
Страна: США
Жанр: ужасы, драма
Продолжительность: ~ 00:45:00
Перевод: Профессиональный многоголосый | Студия "Profix Media"
Субтитры: отсутствуют

Режиссер: Тим Милантс, Эдвард Бергер, Серджо Мимика-Геззан

rating

В ролях:

Джаред Харрис, Киран Хайндс, Тобайас Мензис, Крис Корригэн, Иэн Харт, Кристос Лоутон, Мэттью МакНалти, Адам Нагаитис, Нив Нилсен, Пол Рэди

Описание:

В 1845 году экспедиция под командованием опытного полярного исследователя сэра Джона Франклина отправляется на судах «Террор» и «Эребус» к северному побережью Канады на поиск Северо-Западного прохода из Атлантического океана в Тихий - и бесследно исчезает. Поиски ее затянулись на несколько десятилетий, сведения о ее судьбе собирались буквально по крупицам, и до сих пор картина происшедшего пестрит белыми пятнами... Дэн Симмонс, знаменитый автор «Гипериона» и «Эндимиона», «Илиона» и «Олимпа», «Песни Кали» и «Темной игры смерти», предлагает свою версию событий: главную угрозу для экспедиции составляли не сокрушительные объятия льда, не стужа с вьюгой и не испорченные консервы - а неведомое исполинское чудовище, будто сотканное из снега и полярного мрака.

Качество: WEBRip
Формат: AVI

Видео: ~ 1285 Кбит/с, 720х400
Аудио: Русский (MP3, 2 ch, 256 Кбит/с)
скриншот   скриншот   скриншот   скриншот   скриншот   скриншот  

Общее
Полное имя : C:\The.Terror.S01.WEBRip.Profix.Media\The.Terror.S01E01.WEBRip.Profix.Media.avi
Формат : AVI
Формат/Информация : Audio Video Interleave
Размер файла : 429 Мбайт
Продолжительность : 46 м. 40 с.
Общий поток : 1285 Кбит/сек
Программа кодирования : Lavf57.25.100

Видео
Идентификатор : 0
Формат : xvid
Идентификатор кодека : xvid
Продолжительность : 46 м. 40 с.
Битрейт : 1017 Кбит/сек
Ширина : 720 пикселей
Высота : 400 пикселей
Соотношение сторон : 16:9
Частота кадров : 23,976 кадра/сек
Тип развёртки : Прогрессивная
Бит/(Пиксели*Кадры) : 0.147
Размер потока : 339 Мбайт (79%)
Заголовок : Video Track

Аудио
Идентификатор : 1
Формат : MPEG Audio
Версия формата : Version 1
Профиль формата : Layer 3
Режим : Joint stereo
Идентификатор кодека : 55
Идентификатор кодека/Подсказка : MP3
Продолжительность : 46 м. 40 с.
Вид битрейта : Постоянный
Битрейт : 256 Кбит/сек
Каналы : 2 канала
Частота : 48,0 КГц
Метод сжатия : С потерями
Размер потока : 85,5 Мбайт (20%)
Выравнивание : Соединение по промежуткам
Продолжительность промежутка : 24 мс. (0,58 видеокадр)
Заголовок : Audio Track

pb.wtf



Скачать Террор через торрент http://d.radikal.ru/d12/1803/36/b3605afd1fb3.jpg Скачать фильм Террор через торрент бесплантно в хорошем качестве Описание: В 1845 году экспедиция под командованием опытного полярного исследователя сэра Джона Франклина отправляется на судах «Террор» и ... 10 10 8
Торрент: Зарегистрирован [2018-04-24 05:19] · скачан: 55 раз
Статус: √ проверено
Размер: 3.92 GB
Как cкачать? Как скачать Террор через торрент | qTorrent

% Раздел Тема Автор DL S | L
Зарубежные сериалы [ 17.77 GB ] Террор / The Terror / Сезон: 2 / Серия: 1-10 из 10 [2019 история WEB-DL 720p] 4x[MVO] killermax2013 Скачать
1 | 0
Зарубежные сериалы [ 28.24 GB ] Террор / The Terror / Сезон: 2 / Серии: 1-10 из 10 [2019 WEB-DL 1080p] MVO [AMS] bober100 Скачать
1 | 0
Зарубежные сериалы [ 8.75 GB ] Террор / The Terror / Сезон: 2 / Серии: 1-10 из 10 [2019 WEB-DLRip] [MVO] killermax2013 Скачать
1 | 0
Зарубежные сериалы [ 14.77 GB ] Террор / The Terror / Сезон: 2 / Серии: 1-10 из 10 [2019 WEBRip 720p] [DVO] killermax2013 Скачать
1 | 0
Зарубежные сериалы [ 7.34 GB ] Террор / The Terror / Сезон: 2 / Серии: 1-10 из 10 [2019 WEB-DLRip] MVO [TVShows] bober100 Скачать
1 | 0
Зарубежные сериалы [ 14.77 GB ] Террор / The Terror / Сезон: 2 / Серии: 1-10 из 10 [2019 WEB-DL 720p] MVO [LostFilm] bober100 Скачать
2 | 0
Зарубежные сериалы [ 14.24 GB ] Террор / The Terror / Сезон: 2 / Серии: 1-10 из 10 [2019 WEB-DL 720p] [MVO] killermax2013 Скачать
1 | 0

28-11-2019 20:33  

Отключить всю рекламу на сайте

    Дорогой пользователь! Огромная просьба, поблагодарите релизера, оцените раздачу и оставьте свои комментарий, если Вы скачали Террор через торрент бесплатно! Внесите свою лепту в развитие PiratBit!
    Комментировать посты могут только пользователи прошедшие не сложную регистрацию
    Показать сообщения:    

    Террор через торрент
    Скачать бесплатно Террор
    Террор скачать торрент
    Террор смотреть онлайн
    Cкачать фильм Террор бесплатно
    Террор скачать торрент в хорошем качестве
    Террор смотреть онлайн бесплатно в хорошем качестве


    Вы не можете начинать темы
    Вы не можете отвечать на сообщения
    Вы не можете редактировать свои сообщения
    Вы не можете удалять свои сообщения
    Вы не можете голосовать в опросах
    Вы не можете прикреплять файлы к сообщениям
    Вы можете скачивать файлы