MEGA SALE -75% Borderlands 3 Super Deluxe всего за 550р. 180 руб. (супер цена). Внимание количество ограничено!!!

iTunes

1+1

iTunes

мы

iTunes

1

iTunes

Чернобыль

iTunes

Ральф против интернета

Лицензия

ПШазам

Лицензия

Игра престолов

Лицензия

30
pack

ВАЖНО

!!Акция!!

Alien_RageХит недели

RePack

Resident Evil 21

ИГРА 18+

pack

RePack

Metro:Exodus

!!Акция!!

Alien_Rage

RePack

fifa19

RePack

Assassins Creed: Odyssey

RePack

NEED FOR SPEED™ PAYBACK

3 сезон

9 сезон

Бесстыжие 9 сезон

Все сериалы

все сериалы на PB.wtf

RePack

FAR CRY 5
Ребята, катастрофически не хватает 1900р. для оплаты серверов за АВГУСТ (всвязи с блокировками трафик упал в 3 раза), 1-2р., выручайте.
  

Сиделка / Сезон: 1 / Серии: 1-16 из 16 (Станислав Назиров) [2018, Мелодрама, детектив, SATRip] pb.wtf

Сиделка через торрент pb.wtf

Размер: 9.38 GB | Добавлен: 1 год 5 мес. назад | Торрент скачан:190 раз
Скачать  

24-04-2018 05:41 Сиделка Скачать торрент  

СиделкаГод выпуска: 2018
Страна: Украина
Жанр: Мелодрама, детектив
Продолжительность: ~ 00:45:00
Перевод: Не требуется
Субтитры: Украинские

Режиссер: Станислав Назиров

В ролях:

Александра Власова, Юрий Беляев, Сергей Жигунов, Илья Акинтьев, Александр Давыдов (V), Денис Нурулин, Наталия Балясова, Анна Шульгина, Любава Грешнова, Анна Попова, Артемий Падалка, Дарья Белоусова

Описание:

В одном большом доме живут несколько поколений одной семьи. Каждый из них готов на всё ради наживы. Глава семьи очень богат, но его здоровье оставляет желать лучшего. Никто из родственников не хочет помогать старику, в итоге все пришли к единому мнению - нанять для него сиделку. Девушка, которую наняли в качестве сиделки, быстро подружилась со стариком. Родственники продолжают делать вид, что беспокоятся за здоровье главы семейства. Его супруга давно изменяет ему с соседом. Детям наплевать на закон и порядок. Неожиданно старик преподносит всем сюрприз.

Качество: SATRip
Формат: AVI

Видео: XviD, ~ 1600 Кбит/с, 720x400
Аудио: AC3, 2 ch, 192 Кбит/с
скриншот   скриншот   скриншот   скриншот  

Общее
Полное имя : D:\Sidelka.2018.SATRiip.Files-x\01.Sidelka.2018.SATRiip.Files-x.avi
Формат : AVI
Формат/Информация : Audio Video Interleave
Размер файла : 600 Мбайт
Продолжительность : 45 м. 14 с.
Общий поток : 1854 Кбит/сек
Программа кодирования : VirtualDubMod 1.5.10.3 | www.virtualdub-fr.org || (build 2550/release)
Библиотека кодирования : VirtualDubMod build 2550/release

Видео
Идентификатор : 0
Формат : MPEG-4 Visual
Профиль формата : Advanced Simple@L5
Параметр BVOP формата : 1
Параметр QPel формата : Нет
Параметр GMC формата : Без точки перехода
Параметр матрицы формата : Выборочная
Идентификатор кодека : XVID
Идентификатор кодека/Подсказка : XviD
Продолжительность : 45 м. 14 с.
Битрейт : 1652 Кбит/сек
Ширина : 720 пикселей
Высота : 400 пикселей
Соотношение сторон : 16:9
Частота кадров : 25,000 кадров/сек
Цветовое пространство : YUV
Субдискретизация насыщенности : 4:2:0
Битовая глубина : 8 бит
Тип развёртки : Прогрессивная
Метод сжатия : С потерями
Бит/(Пиксели*Кадры) : 0.229
Размер потока : 534 Мбайт (89%)
Библиотека кодирования : XviD 73

Аудио
Идентификатор : 1
Формат : AC-3
Формат/Информация : Audio Coding 3
Расширение режима : CM (complete main)
Параметр Endianness формата : Big
Идентификатор кодека : 2000
Продолжительность : 45 м. 14 с.
Вид битрейта : Постоянный
Битрейт : 192 Кбит/сек
Каналы : 2 канала
Расположение каналов : Front: L R
Частота : 48,0 КГц
Частота кадров : 31,250 кадров/сек (1536 spf)
Метод сжатия : С потерями
Размер потока : 62,1 Мбайт (10%)
Выравнивание : Разделение по промежуткам
Продолжительность промежутка : 40 мс. (1,00 видеокадр)
Время предзагрузки промежутка : 500 мс.

Когда раздача ведётся путём добавления новых серий, при каждом добавлении создётся новый торрент. Чтобы начать докачку новой серии, пользователям необходимо сделать следующее:
(1) остановить скачивание,
(2) удалить старый торрент у себя из клиента (старые серии удалять не надо),
(3) скачать новый торрент и запустить его у себя в клиенте вместо старого, при этом указать клиенту путь в старую папку, куда и должно происходить скачивание новых серий.
Ваш клиент при этом должен произвести хеширование (проверку) старой папки (если не производит сам - помогите ему сделать это), и будет докачивать только те серии, которых у вас ещё нет. Старые серии при этом не удаляются, а продолжают раздаваться!
Eсли вы уже удалили старые серии, то предотвратить повторную закачку старых серий можно, отжав галочку в соответсвующих местах при запуске нового торрента. По возможности, желательно не удалять старые серии как можно дольше, чтобы релизёр не столько продолжал раздавать старые серии, а смог сконцентрироваться на новых.
pb.wtf



Скачать Сиделка через торрент http://i104.fastpic.ru/big/2018/0424/3b/de45951801ee592621e698e10aad543b.jpg Скачать фильм Сиделка через торрент бесплантно в хорошем качестве Описание: В одном большом доме живут несколько поколений одной семьи. Каждый из них готов на всё ради наживы. Глава семьи очень богат, но ... 8.8 10 8
Info! Серебряная раздача, засчитывается только 50% скачанного.
Торрент: Зарегистрирован [2018-05-04 07:26] · скачан: 190 раз
Статус: √ проверено
Размер: 9.38 GB
Как cкачать? Как скачать Сиделка через торрент | qTorrent

% Раздел Тема Автор DL S | L
Наши сериалы [ 8.48 GB ] Сиделка / Сезон: 1 / Серии: 1-16 из 16 [2018 Мело SATRip-AVC] bober100 Скачать
1 | 0


>> Регистрируемся здесь <<






Отзывы и комментарии о схеме читаем и пишем здесь: ---> Отзывы и комментарии о схеме

Новые благодарочки в телеграм довольных пользователей:
скриншот   скриншот   скриншот   скриншот   скриншот
    Дорогой пользователь! Огромная просьба, поблагодарите релизера, оцените раздачу и оставьте свои комментарий, если Вы скачали Сиделка через торрент бесплатно! Внесите свою лепту в развитие PiratBit!
    Комментировать посты могут только пользователи прошедшие не сложную регистрацию
    Показать сообщения:    

    Сиделка через торрент
    Скачать бесплатно Сиделка
    Сиделка скачать торрент
    Сиделка смотреть онлайн
    Cкачать фильм Сиделка бесплатно
    Сиделка скачать торрент в хорошем качестве
    Сиделка смотреть онлайн бесплатно в хорошем качестве


    Вы не можете начинать темы
    Вы не можете отвечать на сообщения
    Вы не можете редактировать свои сообщения
    Вы не можете удалять свои сообщения
    Вы не можете голосовать в опросах
    Вы не можете прикреплять файлы к сообщениям
    Вы можете скачивать файлы