новый адрес пиратбит piratbit
Мега распродажа FORZA HORIZON 4 ULTIMATE+ВСЕ DLC+ОНЛАЙН всего за 499р. 349 руб. (супер цена). Внимание количество ограничено!!!

iTunes

1+1

iTunes

мы

iTunes

1

iTunes

Чернобыль

iTunes

Ральф против интернета

Лицензия

ПШазам

Лицензия

Игра престолов

Лицензия

30
pack

ВАЖНО

!!Акция!!

Alien_RageХит недели

RePack

Resident Evil 21

ИГРА 18+

pack

RePack

Metro:Exodus

!!Акция!!

Alien_Rage

RePack

fifa19

RePack

Assassins Creed: Odyssey

RePack

NEED FOR SPEED™ PAYBACK

3 сезон

9 сезон

Бесстыжие 9 сезон

Все сериалы

все сериалы на PB.wtf

RePack

FAR CRY 5
Ребята, катастрофически не хватает 1900р. для оплаты серверов за Октябрь (всвязи с блокировками трафик упал в 3 раза), 1-2р., выручайте.
  

Леон Гаррос ищет друга (Марчелло Пальеро) [1960, СССР, Франция, Италия, комедия, SATRip от AVP Studio] pb.wtf

Леон Гаррос ищет друга через торрент pb.wtf

Размер: 1.09 GB | Добавлен: 1 год 6 мес. назад | Торрент скачан:10 раз
Скачать  

24-04-2018 07:19 Леон Гаррос ищет друга Скачать торрент  

Леон Гаррос ищет друга
Страна: СССР, Франция, Италия
Производство: Киностудия им. М. Горького, Procinex, Trident

Жанр: комедия
Год выпуска: 1960
Продолжительность: 01:34:04

Перевод: Не требуется
Cубтитры: нет
Оригинальная аудиодорожка: русский

Режиссер: Марчелло Пальеро

В ролях:
Татьяна Самойлова, Леон Зитрон, Юрий Белов, Жан Рошфор, Жан Гавен, Евгений Буренков, Валентин Зубков, Людмила Марченко, Владимир Ивашов, Ольга Станицына-Гезе, Валентина Куценко...
Об актёрах подробней

Описание:
Во время второй мировой войны француз Леон Гаррос и Борис Ваганов бежали из фашистского концлагеря. Пятнадцать лет спустя французский журналист, решив нанести другу визит, приезжает в Москву. Герой начинает вести репортажи о столице СССР. Он восхищен жизнью советских людей, но его беспокоит отсутствие Бориса. А переводчик Николай занят своими проблемами.

Исходник: DVB
Качество видео: SATRip
Формат видео: AVI

Видео: 688x512 (4:3), 25,000 кадров/сек, XviD ~ 1457 kbps avg, 0.165 bit/pixel
Аудио: 48 kHz, Dolby Digital AC3 2.0, 192 kbps

Раздача от:
Общее
Полное имя : Leon.Garros.ishhet.druga.1960.SATRip_[New-team]_by_AVP_Studio.avi
Формат : AVI
Формат/Информация : Audio Video Interleave
Размер файла : 1,09 Гбайт
Продолжительность : 1 ч. 34 м.
Общий поток : 1659 Кбит/сек
Программа кодирования : VirtualDubMod 1.5.10.3 | www.virtualdub-fr.org || (build 2550/release)
Библиотека кодирования : VirtualDubMod build 2550/release

Видео
Идентификатор : 0
Формат : MPEG-4 Visual
Профиль формата : Advanced Simple@L5
Настройки формата : BVOP1 / Custom Matrix
Параметр BVOP формата : 1
Параметр QPel формата : Нет
Параметр GMC формата : Без точки перехода
Параметр матрицы формата : Выборочная
Идентификатор кодека : XVID
Идентификатор кодека/Подсказка : XviD
Продолжительность : 1 ч. 34 м.
Битрейт : 1457 Кбит/сек
Ширина : 688 пикселей
Высота : 512 пикселей
Соотношение сторон : 4:3
Частота кадров : 25,000 кадров/сек
Цветовое пространство : YUV
Субдискретизация насыщенности : 4:2:0
Битовая глубина : 8 бит
Тип развёртки : Прогрессивная
Метод сжатия : С потерями
Бит/(Пиксели*Кадры) : 0.165
Размер потока : 980 Мбайт (88%)
Библиотека кодирования : XviD 73

Аудио
Идентификатор : 1
Формат : AC-3
Формат/Информация : Audio Coding 3
Идентификатор кодека : 2000
Продолжительность : 1 ч. 34 м.
Вид битрейта : Постоянный
Битрейт : 192 Кбит/сек
Каналы : 2 канала
Расположение каналов : Front: L R
Частота : 48,0 КГц
Частота кадров : 31,250 кадров/сек (1536 SPF)
Битовая глубина : 16 бит
Метод сжатия : С потерями
Размер потока : 129 Мбайт (12%)
Выравнивание : Разделение по промежуткам
Продолжительность промежутка : 40 мс. (1,00 видеокадр)
Время предзагрузки промежутка : 500 мс
pb.wtf



Скачать Леон Гаррос ищет друга через торрент http://i3.imageban.ru/out/2018/04/24/95dfee3844bbfd7ba35696959676430e.png Скачать фильм Леон Гаррос ищет друга через торрент бесплантно в хорошем качестве Описание:Во время второй мировой войны француз Леон Гаррос и Борис Ваганов бежали из фашистского концлагеря. Пятнадцать лет спустя ... 5 10 1
Info! Золотая раздача, скачанное не засчитывается.
Торрент: Зарегистрирован [2018-04-24 07:19] · скачан: 10 раз
Статус: √ проверено
Размер: 1.09 GB
Как cкачать? Как скачать Леон Гаррос ищет друга через торрент | qTorrent

% Раздел Тема Автор DL S | L
Кино СССР [ 1.09 GB ] Леон Гаррос ищет друга [1960 СССР Италия SATRip-AVC от AVP Studio] AVP Studio Скачать
1 | 0


>> Регистрируемся здесь <<






Отзывы и комментарии о схеме читаем и пишем здесь: ---> Отзывы и комментарии о схеме

Новые благодарочки в телеграм довольных пользователей:
скриншот   скриншот   скриншот   скриншот   скриншот
    Дорогой пользователь! Огромная просьба, поблагодарите релизера, оцените раздачу и оставьте свои комментарий, если Вы скачали Леон Гаррос ищет друга через торрент бесплатно! Внесите свою лепту в развитие PiratBit!
    Комментировать посты могут только пользователи прошедшие не сложную регистрацию
    Показать сообщения:    

    Леон Гаррос ищет друга через торрент
    Скачать бесплатно Леон Гаррос ищет друга
    Леон Гаррос ищет друга скачать торрент
    Леон Гаррос ищет друга смотреть онлайн
    Cкачать фильм Леон Гаррос ищет друга бесплатно
    Леон Гаррос ищет друга скачать торрент в хорошем качестве
    Леон Гаррос ищет друга смотреть онлайн бесплатно в хорошем качестве


    Вы не можете начинать темы
    Вы не можете отвечать на сообщения
    Вы не можете редактировать свои сообщения
    Вы не можете удалять свои сообщения
    Вы не можете голосовать в опросах
    Вы не можете прикреплять файлы к сообщениям
    Вы можете скачивать файлы