Ссылка на приватное зеркало всего за 1$. Внимание количество ограничено!!!

OK

1+1

iTunes

мы

OK

1

WEB-DLRip

Джокер

Пифагор

Ведьмак / The Witcher сериал

iTunes

ПШазам

ОК

Оно 2

iTunes

30
pack

Вам бонус

ВАЖНО

!!Акция!!

Alien_RageХит недели

RePack

Resident Evil 21

ИГРА 18+

pack

RePack

jed

RePack

fifa19

RePack

Assassins Creed: Odyssey

RePack

NEED FOR SPEED™ PAYBACK

4 сезон

9 сезон

Бесстыжие 9 сезон

Все сериалы

все сериалы на PB.wtf

RePack

FAR CRY 5
  

Генезис / Genesis (Фредди Хаттон-Миллс, Барт Располи) [2018, Фантастика, WEB-DL 1080p] MVO [@MUZOBOZ@] pb.wtf

Генезис через торрент pb.wtf

Размер: 4.21 GB | Добавлен: 1 год 9 мес. назад | Торрент скачан:130 раз
Скачать  

24-04-2018 08:36 Генезис Скачать торрент  

Генезис / GenesisГод выпуска: 2018
Страна: Великобритания
Жанр: Фантастика
Продолжительность: 01:54:59
Перевод: Любительский (многоголосый) | @MUZOBOZ@
Субтитры: отсутствуют

Режиссер: Фредди Хаттон-Миллс, Барт Располи

rating

В ролях:

Оливия Грант, Чике Оконкво, Джон Ханна, Уоррен Браун, Эд Стоппард, Бен Шафик, Рик Уорден, Уильям Снейп, Венди Гленн, Стефано Брасчи

Описание:

"Генезис" - первый фильм из трилогии, в котором рассматривается природа воли человека, и что вообще значит - быть человеком. Действие разворачивается на фоне апокалипсиса, когда выжившие после катаклизма пытаются создать искусственный интеллект для спасения человечества.

Качество: WEB-DL 1080p
Формат: MKV

Видео: 4 853 kb/s, 1920x1080
Аудио#1: Русский (AC3, 2 ch, 384 Кбит/с)
скриншот  скриншот  скриншот  

Общее
Уникальный идентификатор : 243212001058205584423563805159228589805 (0xB6F8ED750BD61C429B68CE844E9646ED)
Полное имя : D:\Genesis.2018.P.WEB-DL.1O8Op_KOSHARA.mkv
Формат : Matroska
Версия формата : Version 2
Размер файла : 4,21 Гбайт
Продолжительность : 1 ч. 54 м.
Режим общего битрейта : Переменный
Общий поток : 5238 Кбит/сек
Дата кодирования : UTC 2018-04-21 14:07:24
Программа кодирования : mkvmerge v8.3.0 ('Over the Horizon') 64bit
Библиотека кодирования : libebml v1.3.1 + libmatroska v1.4.2

Видео
Идентификатор : 2
Формат : AVC
Формат/Информация : Advanced Video Codec
Профиль формата : High@L4.1
Параметр CABAC формата : Да
Параметр RefFrames формата : 4 кадра
Идентификатор кодека : V_MPEG4/ISO/AVC
Продолжительность : 1 ч. 54 м.
Вид битрейта : Переменный
Битрейт : 4853 Кбит/сек
Максимальный битрейт : 5500 Кбит/сек
Ширина : 1920 пикселей
Высота : 1080 пикселей
Соотношение сторон : 16:9
Режим частоты кадров : Постоянный
Частота кадров : 23,976 (24000/1001) кадра/сек
Стандарт вещания : Component
Цветовое пространство : YUV
Субдискретизация насыщенности : 4:2:0
Битовая глубина : 8 бит
Тип развёртки : Прогрессивная
Бит/(Пиксели*Кадры) : 0.096
Размер потока : 3,82 Гбайт (91%)
Default : Да
Forced : Нет
Цветовой диапазон : Limited
Основные цвета : BT.709
Характеристики трансфера : BT.709
Коэффициенты матрицы : BT.709

Аудио
Идентификатор : 1
Формат : AC-3
Формат/Информация : Audio Coding 3
Расширение режима : CM (complete main)
Параметр Endianness формата : Big
Идентификатор кодека : A_AC3
Продолжительность : 1 ч. 54 м.
Вид битрейта : Постоянный
Битрейт : 384 Кбит/сек
Каналы : 2 канала
Расположение каналов : Front: L R
Частота : 48,0 КГц
Частота кадров : 31,250 кадров/сек (1536 spf)
Метод сжатия : С потерями
Размер потока : 316 Мбайт (7%)
Default : Да
Forced : Нет

pb.wtf



Скачать Генезис через торрент http://img12.lostpic.net/2018/04/24/ee1bb12241c333c95b339ebddd900f05.jpg Скачать фильм Генезис через торрент бесплантно в хорошем качестве Описание: "Генезис" - первый фильм из трилогии, в котором рассматривается природа воли человека, и что вообще значит - быть человеком. ... 7.4 10 7
Торрент: Зарегистрирован [2018-04-24 08:36] · скачан: 130 раз
Статус: T временная
Размер: 4.21 GB
Как cкачать? Как скачать Генезис через торрент | qTorrent

% Раздел Тема Автор DL S | L
T Фильмы (мультфильмы) cо спонсором показа (Новинки AVI/MKV) [ 1.37 GB ] Сестры-терминаторы: Генезис / Terminator sisters: Genesis / Shuang Zi Qi Yuan [2017 WEB-DLRip] MVO [КОЛОБОК] bober100 Скачать
2 | 0
T Фильмы (мультфильмы) cо спонсором показа (Новинки AVI/MKV) [ 2.97 GB ] Сестры-терминаторы: Генезис / Terminator sisters: Genesis / Shuang Zi Qi Yuan [2017 WEB-DL 720p] MVO [КОЛОБОК] bober100 Скачать
1 | 0
Документальные фильмы и телепередачи [ 1.46 GB ] Генезис 2.0 / Genesis 2.0 [2018 ДокументальныйWEB-DLRip ] Armstrong Скачать
2 | 0
T Фильмы (мультфильмы) cо спонсором показа (Новинки AVI/MKV) [ 3.86 GB ] Генезис / Genesis [2018 WEB-DL 720p] MVO [@MUZOBOZ@] bober100 Скачать
1 | 0
T Фильмы (мультфильмы) cо спонсором показа (Новинки AVI/MKV) [ 1.46 GB ] Генезис / Genesis [2018 WEB-DLRip] MVO [@MUZOBOZ@] bober100 Скачать
1 | 0
Зарубежные сериалы [ 17.69 GB ] РеГенезис / ReGenesis / Сезон: Сезон: 1-4 из 4 / Серии: 1-52 серии из 52 [2004-2008 DVDRip] Assasinca Скачать
1 | 0
Зарубежные сериалы [ 5.01 GB ] РеГенезис / ReGenesis [2004 - 2008 г SATRip MVO + Оригинал] sigizmund Скачать
1 | 0

28-11-2019 20:33  

Отключить всю рекламу на сайте

24-04-2018 12:27 Генезис Скачать торрент  

британский шлакpb.wtf



24-04-2018 15:00 Генезис Скачать торрент  

Присоединяюсь, говно полное. Смысла ноль, поведение нелогично, персонажи не раскрыты, актеры играют коряво pb.wtf



24-04-2018 15:07 Генезис Скачать торрент  

Пройду мимо спс за коментыpb.wtf



    Дорогой пользователь! Огромная просьба, поблагодарите релизера, оцените раздачу и оставьте свои комментарий, если Вы скачали Генезис через торрент бесплатно! Внесите свою лепту в развитие PiratBit!
    Комментировать посты могут только пользователи прошедшие не сложную регистрацию
    Показать сообщения:    

    Генезис через торрент
    Скачать бесплатно Генезис
    Генезис скачать торрент
    Генезис смотреть онлайн
    Cкачать фильм Генезис бесплатно
    Генезис скачать торрент в хорошем качестве
    Генезис смотреть онлайн бесплатно в хорошем качестве


    Вы не можете начинать темы
    Вы не можете отвечать на сообщения
    Вы не можете редактировать свои сообщения
    Вы не можете удалять свои сообщения
    Вы не можете голосовать в опросах
    Вы не можете прикреплять файлы к сообщениям
    Вы можете скачивать файлы