Ссылка на приватное зеркало всего за 1$. Внимание количество ограничено!!!

OK

1+1

iTunes

мы

OK

1

WEB-DLRip

Джокер

Пифагор

Ведьмак / The Witcher сериал

iTunes

ПШазам

ОК

Оно 2

iTunes

30
pack

Вам бонус

ВАЖНО

!!Акция!!

Alien_RageХит недели

RePack

Resident Evil 21

ИГРА 18+

pack

RePack

jed

RePack

fifa19

RePack

Assassins Creed: Odyssey

RePack

NEED FOR SPEED™ PAYBACK

4 сезон

9 сезон

Бесстыжие 9 сезон

Все сериалы

все сериалы на PB.wtf

RePack

FAR CRY 5
  

Ну, здравствуй, Оксана Соколова! (Кирилл Васильев) [2018, комедия, WEB-DLRip-AVC] [iTunes] - ExKinoRay pb.wtf

Ну, здравствуй, Оксана Соколова! через торрент pb.wtf

Раздают: 2 [ 0 KB/s ]
Размер: 1.72 GB | Добавлен: 1 год 8 мес. назад | Торрент скачан:839 раз
Скачать  

24-04-2018 21:43 Ну, здравствуй, Оксана Соколова! Скачать торрент  

Информация о фильме
Название: Ну, здравствуй, Оксана Соколова!
Год выхода: 2018
Жанр: Комедия
Страна: Россия
Студия: Профит
Продолжительность: 01:39:54
Язык: Русский | iTunes
Режиссер: Кирилл Васильев
В ролях: Виктор Добронравов, Валентина Мазунина, Сергей Бурунов, Борис Дергачев, Алексей Базанов, Александр Стефанцов, Николай Шрайбер, Алексей Медведев, Игорь Гаспарян, Сергей Лавыгин

Описание: Несостоявшемуся актеру Илье наконец-то повезло - с завтрашнего дня его голос будет звучать в эфире «Мужского радио». Как же не отметить такое событие! Но утром новоиспеченный ведущий не может произнести ни слова - голос после бурной вечеринки пропал совсем. Полчаса до эфира, прайм-тайм, подписанный контракт - Илья в панике... Единственный выход - укол в голосовые связки. Только это, по заверению доктора, может спасти ситуацию. И вот ведущий у микрофона. Все готово к эфиру. Обратный отсчет. Илья приветствует радиослушателей... женским голосом! Став заложником нелепой ситуации, герой идёт на всё, чтобы вернуть голос и не упустить свой шанс.



Файл
Формат: MKV
Качество: WEB-DLRip-AVC
Видео: MPEG-4 AVC, 1024x426 (2.40:1), 23.976 fps, 2081 Kbps, 0.199 bit/pixel
Аудио: 48 kHz, AC3, 5.1 ch, ~384 kbps avg - Rus
General
Unique ID : 232739379900737025902710365571536576562 (0xAF17F95E8B8F786FB97E6B72A912E032)
Complete name : D:\HI.OKSANA.SOKOLOVA.2018.AVC.ExKinoRay.mkv
Format : Matroska
Format version : Version 2
File size : 1.72 GiB
Duration : 1 h 39 min
Overall bit rate : 2 466 kb/s
Movie name : HI OKSANA SOKOLOVA 2018 from ExKinoRay
Encoded date : UTC 2018-04-24 20:29:01
Writing application : mkvmerge v5.6.0 ('Kenya Kane') built on May 27 2012 16:44:04
Writing library : libebml v1.2.3 + libmatroska v1.3.0

Video
ID : 1
Format : AVC
Format/Info : Advanced Video Codec
Format profile : High@L4.1
Format settings, CABAC : Yes
Format settings, ReFrames : 11 frames
Codec ID : V_MPEG4/ISO/AVC
Duration : 1 h 39 min
Bit rate : 2 081 kb/s
Width : 1 024 pixels
Height : 426 pixels
Display aspect ratio : 2.40:1
Frame rate mode : Constant
Frame rate : 23.976 (23976/1000) FPS
Color space : YUV
Chroma subsampling : 4:2:0
Bit depth : 8 bits
Scan type : Progressive
Bits/(Pixel*Frame) : 0.199
Stream size : 1.42 GiB (82%)
Title : Enigma
Writing library : x264 core 152 r2851 ba24899
Encoding settings : cabac=1 / ref=11 / deblock=1:-2:-2 / analyse=0x3:0x113 / me=umh / subme=10 / psy=1 / psy_rd=1.05:0.10 / mixed_ref=1 / me_range=32 / chroma_me=1 / trellis=2 / 8x8dct=1 / cqm=0 / deadzone=21,11 / fast_pskip=0 / chroma_qp_offset=-3 / threads=12 / lookahead_threads=3 / sliced_threads=0 / nr=0 / decimate=0 / interlaced=0 / bluray_compat=0 / constrained_intra=0 / bframes=12 / b_pyramid=2 / b_adapt=2 / b_bias=0 / direct=3 / weightb=1 / open_gop=0 / weightp=2 / keyint=240 / keyint_min=23 / scenecut=40 / intra_refresh=0 / rc_lookahead=40 / rc=2pass / mbtree=0 / bitrate=2081 / ratetol=1.0 / qcomp=0.60 / qpmin=0 / qpmax=51 / qpstep=4 / cplxblur=20.0 / qblur=0.5 / vbv_maxrate=50000 / vbv_bufsize=62500 / nal_hrd=none / filler=0 / ip_ratio=1.40 / pb_ratio=1.30 / aq=1:1.00
Language : English
Default : Yes
Forced : No
Color range : Limited
Color primaries : BT.709
Transfer characteristics : BT.709
Matrix coefficients : BT.709

Audio
ID : 2
Format : AC-3
Format/Info : Audio Coding 3
Mode extension : CM (complete main)
Format settings, Endianness : Big
Codec ID : A_AC3
Duration : 1 h 39 min
Bit rate mode : Constant
Bit rate : 384 kb/s
Channel(s) : 6 channels
Channel positions : Front: L C R, Side: L R, LFE
Sampling rate : 48.0 kHz
Frame rate : 31.250 FPS (1536 spf)
Compression mode : Lossy
Stream size : 274 MiB (16%)
Title : iTunes
Language : Russian
Default : Yes
Forced : No

Menu
00:00:00.000 : en:1
00:01:20.000 : en:2
00:10:06.000 : en:3
00:19:48.000 : en:4
00:35:10.000 : en:5
00:45:05.000 : en:6
00:55:19.000 : en:7
01:07:24.000 : en:8
01:16:28.000 : en:9
01:25:16.000 : en:10
01:34:52.000 : en:11
Релиз от:

Автор релиза: pb.wtf



Скачать Ну, здравствуй, Оксана Соколова! через торрент http://i105.fastpic.ru/big/2018/0415/01/3834ea19b1b5d21b4b74059c9b403901.jpg Скачать фильм Ну, здравствуй, Оксана Соколова! через торрент бесплантно в хорошем качестве Описание: Несостоявшемуся актеру Илье наконец-то повезло - с завтрашнего дня его голос будет звучать в эфире «Мужского радио». Как же не ... 10 10 17
Info! Золотая раздача, скачанное не засчитывается.
Торрент: Зарегистрирован [2018-04-24 21:43] · скачан: 839 раз
Статус: √ проверено
Размер: 1.72 GB
Как cкачать? Как скачать Ну, здравствуй, Оксана Соколова! через торрент | qTorrent

28-11-2019 20:33  

Отключить всю рекламу на сайте

    Дорогой пользователь! Огромная просьба, поблагодарите релизера, оцените раздачу и оставьте свои комментарий, если Вы скачали Ну, здравствуй, Оксана Соколова! через торрент бесплатно! Внесите свою лепту в развитие PiratBit!
    Комментировать посты могут только пользователи прошедшие не сложную регистрацию
    Показать сообщения:    

    Ну, здравствуй, Оксана Соколова! через торрент
    Скачать бесплатно Ну, здравствуй, Оксана Соколова!
    Ну, здравствуй, Оксана Соколова! скачать торрент
    Ну, здравствуй, Оксана Соколова! смотреть онлайн
    Cкачать фильм Ну, здравствуй, Оксана Соколова! бесплатно
    Ну, здравствуй, Оксана Соколова! скачать торрент в хорошем качестве
    Ну, здравствуй, Оксана Соколова! смотреть онлайн бесплатно в хорошем качестве


    Вы не можете начинать темы
    Вы не можете отвечать на сообщения
    Вы не можете редактировать свои сообщения
    Вы не можете удалять свои сообщения
    Вы не можете голосовать в опросах
    Вы не можете прикреплять файлы к сообщениям
    Вы можете скачивать файлы