Всегда рабочее зеркало без VPN и Proxy просто перед .vidak.icu напиши любое слово или цифру, Пример http://ufie.vidak.icu

MVO

MVO

1 сезон

1

1 сезон

iTunes

1 сезон

13

1 сезон

Deluxe

pack

Рекомендуем

Repack

30

ВАЖНО

RePack

MK11

RePack

jed

RePack

fifa19

RePack

RDR2

RePack

NEED FOR SPEED™ PAYBACK

Кинопоиск HD

6 сезон

 Острые козырьки 6 сезон

Все сериалы

все сериалы на PB.wtf

RePack

FAR CRY 5
  
Magnet ссылка

Снеговик / The Snowman (Томас Альфредсон / Tomas Alfredson) [2017, Ужасы, триллер, драма, криминал, детектив, UHD WEBRip 2160p] Дубляж pb.wtf

Снеговик через торрент pb.wtf

Размер: 33.44 GB | Добавлен: 4 года 3 мес. назад | Торрент скачан:36 раз
Смотреть онлайн Снеговик | Скачать    Ребята, помогите собрать деньги на оплату серверов!!!

25-04-2018 04:30 Снеговик Скачать торрент  

Снеговик / The Snowman«Скоро выпадет первый снег и начнется опасная игра»
Год выпуска: 2017
Страна: Великобритания, США, Швеция
Жанр: Ужасы, триллер, драма, криминал, детектив
Продолжительность: 01:59:14
Перевод: Дублированный
Субтитры: Русские, английские, испанские, французские
Режиссер: Томас Альфредсон / Tomas Alfredson
В ролях:
Майкл Фассбендер, Ребекка Фергюсон, Шарлотта Генсбур, Йонас Карлссон, Майкл Йэтс, Ронан Вайберт, Дж.К. Симмонс, Вэл Килмер, Давид Денсик, Тоби Джонс, Женевьев О’Рейли, Джеймс Д’Арси
Описание:
Зима 2004-го года. Череда страшных происшествий обвалилась на город Осло, что располагается в Норвегии. С выпадением первого снега стали бесследно пропадать люди, причем среди них лишь молодые замужние женщины. Становится ясно, что в городе орудует маньяк, но понять его мотивов пока невозможно. Полиция пытается предпринимать попытки напасть хоть на какой-то след, но все тщетно. Злоумышленник слишком хорошо продумывает свои действия, не оставляя за собой даже мельчайших улик, за которые можно было бы зацепиться. Среди потенциальных жертв, представительниц прекрасного пола, начинается паника. Никто не хочет пропасть следующим. За это дело берется один из самых опытных детективов Харри Холле (Майкл Фассбендер), что уже успел зарекомендовать себя множеством раскрытых дел, что другим было не под силу. Перед Харри теперь предстоит непростая задача, ведь до этого маньяка еще никто не смог остановить.
Рейтинг:

Качество: UHD WEBRip 2160p
Формат: MKV
Видео: HEVC, 31.6 Mбит/с, 3840x2160, 23,976 кадра/сек
Аудио: Русский AC3, 6 ch, 448 Кбит/с
Аудио: Английский DTS-HD MA, 8 ch, 4976 Кбит/с
Аудио: Английский DTS, 6 ch, 1509 Кбит/с
Аудио: Французский DTS, 6 ch, 768 Кбит/с
Аудио: Испанский DTS, 6 ch, 768 Кбит/с
Общее
Уникальный идентификатор : 340195852574079733769247710736891724089 (0xFFEF56836CA2C557791B9C3271FF4139)
Полное имя : The.Snowman.2017.2160p.HDR.WEBRip.DTS-HD.MA.7.1.EN.FR.SPA.x265.mkv
Формат : Matroska
Версия формата : Version 4 / Version 2
Размер файла : 33,4 Гбайт
Продолжительность : 1 ч. 59 м.
Общий поток : 40,1 Мбит/сек
Дата кодирования : UTC 2018-04-25 03:24:02
Программа кодирования : mkvmerge v22.0.0 ('At The End Of The World') 64-bit
Библиотека кодирования : libebml v1.3.5 + libmatroska v1.4.8

Видео
Идентификатор : 1
Формат : HEVC
Формат/Информация : High Efficiency Video Coding
Коммерческое название : HDR10
Профиль формата : Main [email protected]@Main
Идентификатор кодека : V_MPEGH/ISO/HEVC
Продолжительность : 1 ч. 59 м.
Битрейт : 31,6 Мбит/сек
Ширина : 3840 пикселей
Высота : 2160 пикселей
Соотношение сторон : 16:9
Режим частоты кадров : Постоянный
Частота кадров : 23,976 (24000/1001) кадра/сек
Цветовое пространство : YUV
Субдискретизация насыщенности : 4:2:0
Битовая глубина : 10 бит
Бит/(Пиксели*Кадры) : 0.159
Размер потока : 26,4 Гбайт (79%)
Default : Да
Forced : Нет
Цветовой диапазон : Limited
Основные цвета : BT.2020
Характеристики трансфера : PQ
Коэффициенты матрицы : BT.2020 non-constant
MasteringDisplay_ColorPrimaries : BT.709
MasteringDisplay_Luminance : min: 0.0050 cd/m2, max: 1000 cd/m2

Аудио #1
Идентификатор : 2
Формат : AC-3
Формат/Информация : Audio Coding 3
Идентификатор кодека : A_AC3
Продолжительность : 1 ч. 59 м.
Вид битрейта : Постоянный
Битрейт : 448 Кбит/сек
Каналы : 6 каналов
Расположение каналов : Front: L C R, Side: L R, LFE
Частота : 48,0 КГц
Частота кадров : 31,250 кадров/сек (1536 SPF)
Битовая глубина : 16 бит
Метод сжатия : С потерями
Задержка видео : 12 мс.
Размер потока : 382 Мбайт (1%)
Язык : Russian
ServiceKind/String : Complete Main
Default : Нет
Forced : Нет

Аудио #2
Идентификатор : 3
Формат : DTS
Формат/Информация : Digital Theater Systems
Профиль формата : MA / Core
Идентификатор кодека : A_DTS
Продолжительность : 1 ч. 59 м.
Вид битрейта : Переменный / Постоянный
Битрейт : 4976 Кбит/сек / 1509 Кбит/сек
Каналы : 8 каналов / 6 каналов
Расположение каналов : Front: L C R, Side: L R, Back: L R, LFE / Front: L C R, Side: L R, LFE
Частота : 48,0 КГц
Частота кадров : 93,750 кадра/сек (512 SPF)
Битовая глубина : 24 бит
Метод сжатия : Без потерь / Lossy
Задержка видео : 6 мс.
Размер потока : 4,14 Гбайт (12%)
Язык : English
Default : Да
Forced : Нет

Аудио #3
Идентификатор : 4
Формат : DTS
Формат/Информация : Digital Theater Systems
Идентификатор кодека : A_DTS
Продолжительность : 1 ч. 59 м.
Вид битрейта : Постоянный
Битрейт : 1509 Кбит/сек
Каналы : 6 каналов
Расположение каналов : Front: L C R, Side: L R, LFE
Частота : 48,0 КГц
Частота кадров : 93,750 кадра/сек (512 SPF)
Битовая глубина : 24 бит
Метод сжатия : С потерями
Задержка видео : 6 мс.
Размер потока : 1,26 Гбайт (4%)
Язык : English
Default : Нет
Forced : Нет

Аудио #4
Идентификатор : 5
Формат : DTS
Формат/Информация : Digital Theater Systems
Идентификатор кодека : A_DTS
Продолжительность : 1 ч. 59 м.
Вид битрейта : Постоянный
Битрейт : 768 Кбит/сек
Каналы : 6 каналов
Расположение каналов : Front: L C R, Side: L R, LFE
Частота : 48,0 КГц
Частота кадров : 93,750 кадра/сек (512 SPF)
Битовая глубина : 24 бит
Метод сжатия : С потерями
Задержка видео : 7 мс.
Размер потока : 655 Мбайт (2%)
Язык : French
Default : Нет
Forced : Нет

Аудио #5
Идентификатор : 6
Формат : DTS
Формат/Информация : Digital Theater Systems
Идентификатор кодека : A_DTS
Продолжительность : 1 ч. 59 м.
Вид битрейта : Постоянный
Битрейт : 768 Кбит/сек
Каналы : 6 каналов
Расположение каналов : Front: L C R, Side: L R, LFE
Частота : 48,0 КГц
Частота кадров : 93,750 кадра/сек (512 SPF)
Битовая глубина : 24 бит
Метод сжатия : С потерями
Задержка видео : 7 мс.
Размер потока : 655 Мбайт (2%)
Язык : Spanish
Default : Нет
Forced : Нет

Текст #1
Идентификатор : 7
Формат : UTF-8
Идентификатор кодека : S_TEXT/UTF8
Идентификатор кодека/Информация : UTF-8 Plain Text
Продолжительность : 1 ч. 53 м.
Битрейт : 59 бит/сек
ElementCount : 1027
Размер потока : 49,5 Кбайт (0%)
Язык : Russian
Default : Да
Forced : Нет

Текст #2
Идентификатор : 8
Формат : PGS
Режим смешивания : zlib
Идентификатор кодека : S_HDMV/PGS
Идентификатор кодека/Информация : Picture based subtitle format used on BDs/HD-DVDs
Продолжительность : 1 ч. 53 м.
Битрейт : 29,1 Кбит/сек
ElementCount : 2396
Размер потока : 23,6 Мбайт (0%)
Заголовок : English-PGS
Язык : English
Default : Нет
Forced : Нет

Текст #3
Идентификатор : 9
Формат : PGS
Режим смешивания : zlib
Идентификатор кодека : S_HDMV/PGS
Идентификатор кодека/Информация : Picture based subtitle format used on BDs/HD-DVDs
Продолжительность : 1 ч. 58 м.
Битрейт : 24,5 Кбит/сек
ElementCount : 2038
Размер потока : 20,7 Мбайт (0%)
Заголовок : French-PGS
Язык : French
Default : Нет
Forced : Нет

Текст #4
Идентификатор : 10
Формат : PGS
Режим смешивания : zlib
Идентификатор кодека : S_HDMV/PGS
Идентификатор кодека/Информация : Picture based subtitle format used on BDs/HD-DVDs
Продолжительность : 1 ч. 48 м.
Битрейт : 1062 бит/сек
ElementCount : 80
Размер потока : 847 Кбайт (0%)
Заголовок : French-FORCED-PGS
Язык : French
Default : Нет
Forced : Нет

Текст #5
Идентификатор : 11
Формат : PGS
Режим смешивания : zlib
Идентификатор кодека : S_HDMV/PGS
Идентификатор кодека/Информация : Picture based subtitle format used on BDs/HD-DVDs
Продолжительность : 1 ч. 58 м.
Битрейт : 23,0 Кбит/сек
ElementCount : 2145
Размер потока : 19,5 Мбайт (0%)
Заголовок : Spanish-PGS
Язык : Spanish
Default : Нет
Forced : Нет

Текст #6
Идентификатор : 12
Формат : PGS
Режим смешивания : zlib
Идентификатор кодека : S_HDMV/PGS
Идентификатор кодека/Информация : Picture based subtitle format used on BDs/HD-DVDs
Продолжительность : 1 ч. 48 м.
Битрейт : 1625 бит/сек
ElementCount : 110
Размер потока : 1,27 Мбайт (0%)
Заголовок : Spanish-FORCED-PGS
Язык : Spanish
Default : Нет
Forced : Нет
pb.wtf



Скачать Снеговик через торрент https://d.radikal.ru/d03/1804/e0/c2c423929dc4.png Скачать, смотреть онлайн Снеговик бесплантно в хорошем качестве Описание: Зима 2004-го года. Череда страшных происшествий обвалилась на город Осло, что располагается в Норвегии. С выпадением первого ... 10 10 2
Торрент: Зарегистрирован [2018-04-25 04:30] · скачан: 36 раз
Статус: √ проверено
Размер: 33.44 GB
Как cкачать? Как скачать Снеговик через торрент | UTorrent

% Раздел Тема Автор DL S | L
Фильмы 2017 [DVDrip, WEB-DLRip, HDrip] (DUB, MVO) [ 1.46 GB ] Снеговик / The Snowman [2017 BDRip] - [] Twi7ter Скачать
1 | 0
Фильмы 2017 [DVDrip, WEB-DLRip, HDrip] (DUB, MVO) [ 2.18 GB ] Снеговик / The Snowman [2017 BDRip] - [] Twi7ter Скачать
1 | 0

28-11-2019 20:33  

Отключить вcю реклaмy на сайте

    Дорогой пользователь! Огромная просьба, поблагодарите релизера, оцените раздачу и оставьте свои комментарий, если Вы скачали Снеговик через торрент бесплатно!
    Комментировать посты могут только пользователи прошедшие не сложную регистрацию
    Показать сообщения:    

    Снеговик через торрент
    Скачать бесплатно Снеговик
    Снеговик скачать торрент
    Снеговик смотреть онлайн
    Cкачать фильм Снеговик бесплатно
    Снеговик скачать торрент в хорошем качестве
    Снеговик смотреть онлайн бесплатно в хорошем качестве


    Вы не можете начинать темы
    Вы не можете отвечать на сообщения
    Вы не можете редактировать свои сообщения
    Вы не можете удалять свои сообщения
    Вы не можете голосовать в опросах
    Вы не можете прикреплять файлы к сообщениям
    Вы можете скачивать файлы