Ссылка на приватное зеркало нашего сайта всего за 1$. Внимание количество ограничено!!!

2 сезон

iTunes

1 сезон

1

2 сезон

2 сезон

iTunes

1 сезон

RePack

30

Новинка

ВАЖНО

ИГРА 18+

pack

RePack

MK11
pack

Забери бонус

RePack

jed

!!Акция!!

Alien_Rage

RePack

fifa19

RePack

Assassins Creed: Odyssey

RePack

NEED FOR SPEED™ PAYBACK

4 сезон

9 сезон

Бесстыжие 9 сезон

Все сериалы

все сериалы на PB.wtf

RePack

FAR CRY 5
  

Сага о чудовище / Wildling (Фридрих Боэм / Fritz Böhm) [2018, ужасы, фэнтези, WEB-DL 1080p] MVO [HDrezka Studio] + DVO [HiWay Grope] + AVO [BadBajo] pb.wtf

Сага о чудовище через торрент pb.wtf

Размер: 5.24 GB | Добавлен: 2 года 7 мес. назад | Торрент скачан:225 раз
Скачать  

22-04-2018 14:40 Сага о чудовище Скачать торрент  

Сага о чудовище
Wildling

Страна: США
Жанр: ужасы, фэнтези

Год выпуска: 2018
Продолжительность: 01:32:33

Перевод #1: Профессиональный (многоголосый, закадровый) [HDrezka Studio]
Перевод #2: Любительский (двухголосый, закадровый) [HiWay Grope]
Перевод #3: Авторский (одноголосый, закадровый) [А. Важенин - BadBajo]
Субтитры: английские (полные, SDH)
Оригинальная аудиодорожка: английский

Режиссер: Фридрих Боэм / Fritz Böhm

В ролях: Лив Тайлер, Брэд Дуриф, Бел Паули, Джеймс ЛеГрос, Майк Фейст, Коллин Келли-Сорделет, Kelly Lamor Wilson, Джулия Русацки, Трой Раптэш, Шарлотта Уббен, Фрэнк Дил, Патрик М. Уолш

Описание:
Выросшая в полной изоляции в лесной хижине 16-летняя Анна ничего не знает о внешнем мире, пока ее не находят местный шериф Эллен и ее 16-летний брат Рэй. Но, даже находясь под их защитой, Анна не перестает бояться будто бы охотящихся за ней страшных чудовищ, о которых ей рассказывал отец. Чем больше Анна открывает для себя новый мир, тем больше она проникает в тайну чудовищ и понимает, что ее жизнь неразрывно связана с этой легендой.



Релиз:

Автор релиза: stalkerok
Удаление рекламы с озвучки HiWay Grope: stalkerok
Дорожка HDrezka Studio извлечена с их сайта, синхронизирована и перекодирована в AC3

Сэмпл

Качество видео: WEB-DL 1080p [Wildling.2018.1080p.AMZN.WEB-DL.DDP5.1.H.264-NTG]
Формат видео: MKV
Видео кодек: AVC
Аудио кодек: AC3, E-AC3
Видео: AVC, 6251 Кбит/сек, 1920x800 (2.40:1), 23,976 кадр/сек
Аудио №1: AC3, 192 Кбит/сек, 48 КГц, 2.0 - русский | HDrezka Studio
Аудио №2: AC3, 384 Кбит/сек, 48 КГц, 5.1 - русский | HiWay Grope
Аудио №3: AC3, 640 Кбит/сек, 48 КГц, 5.1 - русский | BadBajo
Аудио №4: E-AC3, 640 Кбит/сек, 48 КГц, 5.1 - английский
Общее
Уникальный идентификатор : 254682319938784594591682507892453413840 (0xBF9A07D7360E03C48056077EC53213D0)
Полное имя : O:\!Rips\Wildling (2018)\Wildling.2018.1080p.AMZN.WEB-DL.3xRus.Eng.stalkerok.new-team.mkv
Формат : Matroska
Версия формата : Version 4 / Version 2
Размер файла : 5,24 Гбайт
Продолжительность : 1 ч. 32 м.
Режим общего битрейта : Переменный
Общий поток : 8110 Кбит/сек
Название фильма : Wildling (2018) - release by stalkerok
Дата кодирования : UTC 2018-04-22 16:00:53
Программа кодирования : mkvmerge v8.6.1 ('Flying') 64bit
Библиотека кодирования : libebml v1.3.3 + libmatroska v1.4.4

Видео
Идентификатор : 1
Формат : AVC
Формат/Информация : Advanced Video Codec
Профиль формата : High@L4
Параметр CABAC формата : Да
Параметр ReFrames формата : 4 кадра
Идентификатор кодека : V_MPEG4/ISO/AVC
Продолжительность : 1 ч. 32 м.
Вид битрейта : Переменный
Битрейт : 6252 Кбит/сек
Максимальный битрейт : 15,0 Мбит/сек
Ширина : 1920 пикселей
Высота : 800 пикселей
Соотношение сторон : 2,40:1
Режим частоты кадров : Постоянный
Частота кадров : 23,976 (24000/1001) кадра/сек
Цветовое пространство : YUV
Субдискретизация насыщенности : 4:2:0
Битовая глубина : 8 бит
Тип развёртки : Прогрессивная
Бит/(Пиксели*Кадры) : 0.170
Размер потока : 4,04 Гбайт (77%)
Заголовок : Wildling (2018) - release by stalkerok
Default : Да
Forced : Нет
Цветовой диапазон : Limited
Основные цвета : BT.709
Характеристики трансфера : BT.709
Коэффициенты матрицы : BT.709

Аудио #1
Идентификатор : 2
Формат : AC-3
Формат/Информация : Audio Coding 3
Расширение режима : CM (complete main)
Параметр Endianness формата : Big
Идентификатор кодека : A_AC3
Продолжительность : 1 ч. 32 м.
Вид битрейта : Постоянный
Битрейт : 192 Кбит/сек
Каналы : 2 канала
Расположение каналов : Front: L R
Частота : 48,0 КГц
Частота кадров : 31,250 кадров/сек (1536 spf)
Метод сжатия : С потерями
Размер потока : 127 Мбайт (2%)
Заголовок : HDrezka Studio
Язык : Russian
Default : Да
Forced : Нет

Аудио #2
Идентификатор : 3
Формат : AC-3
Формат/Информация : Audio Coding 3
Расширение режима : CM (complete main)
Параметр Endianness формата : Big
Идентификатор кодека : A_AC3
Продолжительность : 1 ч. 32 м.
Вид битрейта : Постоянный
Битрейт : 384 Кбит/сек
Каналы : 6 каналов
Расположение каналов : Front: L C R, Side: L R, LFE
Частота : 48,0 КГц
Частота кадров : 31,250 кадров/сек (1536 spf)
Метод сжатия : С потерями
Размер потока : 254 Мбайт (5%)
Заголовок : HiWay Grope
Язык : Russian
Default : Нет
Forced : Нет

Аудио #3
Идентификатор : 4
Формат : AC-3
Формат/Информация : Audio Coding 3
Расширение режима : CM (complete main)
Параметр Endianness формата : Big
Идентификатор кодека : A_AC3
Продолжительность : 1 ч. 32 м.
Вид битрейта : Постоянный
Битрейт : 640 Кбит/сек
Каналы : 6 каналов
Расположение каналов : Front: L C R, Side: L R, LFE
Частота : 48,0 КГц
Частота кадров : 31,250 кадров/сек (1536 spf)
Метод сжатия : С потерями
Размер потока : 424 Мбайт (8%)
Заголовок : BadBajo
Язык : Russian
Default : Нет
Forced : Нет

Аудио #4
Идентификатор : 5
Формат : E-AC-3
Формат/Информация : Audio Coding 3
Параметр Endianness формата : Big
Идентификатор кодека : A_EAC3
Продолжительность : 1 ч. 32 м.
Вид битрейта : Постоянный
Битрейт : 640 Кбит/сек
Каналы : 6 каналов
Расположение каналов : Front: L C R, Side: L R, LFE
Частота : 48,0 КГц
Частота кадров : 187,500 кадров/сек (256 spf)
Метод сжатия : С потерями
Размер потока : 424 Мбайт (8%)
Язык : English
Default : Нет
Forced : Нет

Текст #1
Идентификатор : 6
Формат : UTF-8
Идентификатор кодека : S_TEXT/UTF8
Идентификатор кодека/Информация : UTF-8 Plain Text
Продолжительность : 1 ч. 29 м.
Битрейт : 24 бит/сек
Count of elements : 622
Размер потока : 16,2 Кбайт (0%)
Язык : English
Default : Нет
Forced : Нет

Текст #2
Идентификатор : 7
Формат : UTF-8
Идентификатор кодека : S_TEXT/UTF8
Идентификатор кодека/Информация : UTF-8 Plain Text
Продолжительность : 1 ч. 31 м.
Битрейт : 29 бит/сек
Count of elements : 868
Размер потока : 19,8 Кбайт (0%)
Заголовок : SDH
Язык : English
Default : Нет
Forced : Нет
скриншот   скриншот   скриншот   скриншот   скриншот   скриншот  
pb.wtf



Скачать Сага о чудовище через торрент http://i6.imageban.ru/out/2017/09/18/2ff75c0c358795c5946784cc1680714d.png Скачать фильм Сага о чудовище через торрент бесплантно в хорошем качестве Описание:Выросшая в полной изоляции в лесной хижине 16-летняя Анна ничего не знает о внешнем мире, пока ее не находят местный шериф Эллен и ... 9 10 11
Info! Золотая раздача, скачанное не засчитывается.
Торрент: Зарегистрирован [2018-04-25 08:15] · скачан: 225 раз
Статус: √ проверено
Размер: 5.24 GB
Как cкачать? Как скачать Сага о чудовище через торрент | qTorrent

% Раздел Тема Автор DL S | L
Фильмы 2018 [DVDrip, WEB-DLRip, HDrip] (DUB, MVO) [ 1.42 GB ] Сага о чудовище. Сумерки / Wildling [2018 BDRip] - Twi7ter Скачать
1 | 0
Фильмы 2018 [DVDrip, WEB-DLRip, HDrip] (DUB, MVO) [ 1.53 GB ] Сага о чудовище. Сумерки / Wildling [2018 BDRip-AVC] bober100 Скачать
1 | 0
Фильмы (Blu-ray, BD-Remux, HDDVD) [ 17.59 GB ] Сага о чудовище. Сумерки / Wildling [2018 BD Remux 1080p] bober100 Скачать
1 | 0
Фильмы 2018 [DVDrip, WEB-DLRip, HDrip] (DUB, MVO) [ 745 MB ] Сага о чудовище. Сумерки / Wildling [2018 BDRip] bober100 Скачать
1 | 0
Фильмы 2018 [DVDrip, WEB-DLRip, HDrip] (DUB, MVO) [ 1.42 GB ] Сага о чудовище. Сумерки / Wildling [2018 BDRip] bober100 Скачать
1 | 0
Фильмы (WEB-DL 720p, 1080p) [ 2.85 GB ] Сага о чудовище. Сумерки / Wildling [2018 WEB-DL 720p] bober100 Скачать
2 | 0
Фильмы (WEB-DL 720p, 1080p) [ 4.7 GB ] Сага о чудовище. Сумерки / Wildling [2018 WEB-DL 1080p] bober100 Скачать
1 | 0

28-11-2019 20:33  

Отключить всю рекламу на сайте

22-04-2018 16:11 Сага о чудовище Скачать торрент  

Замена файла, добавлена озвучка от HDRezka studiopb.wtf



25-04-2018 13:59 Сага о чудовище Скачать торрент  

хорошее кино.pb.wtf



26-04-2018 14:33 Сага о чудовище Скачать торрент  

Опа... проверим)pb.wtf



26-04-2018 16:15 Сага о чудовище Скачать торрент  

Я в теме pb.wtf



    Дорогой пользователь! Огромная просьба, поблагодарите релизера, оцените раздачу и оставьте свои комментарий, если Вы скачали Сага о чудовище через торрент бесплатно! Внесите свою лепту в развитие PiratBit!
    Комментировать посты могут только пользователи прошедшие не сложную регистрацию
    Показать сообщения:    

    Сага о чудовище через торрент
    Скачать бесплатно Сага о чудовище
    Сага о чудовище скачать торрент
    Сага о чудовище смотреть онлайн
    Cкачать фильм Сага о чудовище бесплатно
    Сага о чудовище скачать торрент в хорошем качестве
    Сага о чудовище смотреть онлайн бесплатно в хорошем качестве


    Вы не можете начинать темы
    Вы не можете отвечать на сообщения
    Вы не можете редактировать свои сообщения
    Вы не можете удалять свои сообщения
    Вы не можете голосовать в опросах
    Вы не можете прикреплять файлы к сообщениям
    Вы можете скачивать файлы