>

5.6

iTunes

6.1

MVO

5.7

MVO

1

7.4

1 сезон

6.8

iTunes

7.2

1 сезон

13

6.7

1 сезон

8.3

RePack

30

Deluxe

pack

9.9

Лицензия

ВАЖНО

ИГРА 18+

pack

7.3

RePack

MK11

7.7

RePack

jed

7.8

RePack

fifa19

8.5

RePack

RDR2

RePack

NEED FOR SPEED™ PAYBACK

4 сезон

9 сезон

Бесстыжие 9 сезон

Все сериалы

все сериалы на PB.wtf

RePack

FAR CRY 5

Anonymous, доброе утро, мы катастрофически не успеваем собрать деньги на оплату серверов, помогите нам пожалуйста 5,10,15р., для нас важна любая помощь . В качестве благодарности мы отключим Вам всю рекламу на сайте (укажите свой ник в строку Ваше имя)!

×
  
Magnet ссылка

Повесть пламенных лет (Юлия Солнцева) [1960, СССР, драма, военный, SATRip от AVP Studio] pb.wtf

Повесть пламенных лет через торрент pb.wtf

Размер: 745 MB | Добавлен: 3 года 5 мес. назад | Торрент скачан:14 раз
Смотреть онлайн Повесть пламенных лет | Скачать    Ребята, помогите собрать деньги на оплату серверов!!!

25-04-2018 08:50 Повесть пламенных лет Скачать торрент  

Повесть пламенных лет
Страна: СССР
Производство: Мосфильм

Жанр: драма, военный
Год выпуска: 1960
Продолжительность: 01:40:40

Перевод: Не требуется
Cубтитры: нет
Оригинальная аудиодорожка: русский

Режиссер: Юлия Солнцева

В ролях:
Николай Винграновский, Борис Андреев, Сергей Лукьянов, Василий Меркурьев, Светлана Жгун, Михаил Майоров, Зинаида Кириенко, Борис Бибиков, Волдемар Акуратерс, Владимир Зельдин, Борис Новиков, Евгений Бондаренко, Александр Романенко, Антонина Богданова, Сергей Петров, Вера Капустина, Майя Булгакова...
Об актёрах подробней

Описание:
Первый советский художественный широкоформатный фильм.
1941 год. Началась Великая Отечественная война — и колхозник с Приднепровья Иван Орлюк стал солдатом. Он был участником первых боев на Днепре и дошел до Берлина. А вернувшись домой, провёл первый сев на освобожденной земле.

Исходник: DVB
Качество видео: SATRip
Формат видео: AVI

Видео: 688x304 (2,25:1), 25,000 кадров/сек, XviD ~ 834 kbps avg, 0.159 bit/pixel
Аудио: 48 kHz, Dolby Digital AC3 2.0, 192 kbps

Раздача от:
Общее
Полное имя : Povest.plamennyh.let.1960.SATRip_[New-team]_by_AVP_Studio.avi
Формат : AVI
Формат/Информация : Audio Video Interleave
Размер файла : 745 Мбайт
Продолжительность : 1 ч. 40 м.
Общий поток : 1035 Кбит/сек
Программа кодирования : VirtualDubMod 1.5.10.3 | www.virtualdub-fr.org || (build 2550/release)
Библиотека кодирования : VirtualDubMod build 2550/release

Видео
Идентификатор : 0
Формат : MPEG-4 Visual
Профиль формата : Advanced Simple@L5
Настройки формата : BVOP1 / Custom Matrix
Параметр BVOP формата : 1
Параметр QPel формата : Нет
Параметр GMC формата : Без точки перехода
Параметр матрицы формата : Выборочная
Идентификатор кодека : XVID
Идентификатор кодека/Подсказка : XviD
Продолжительность : 1 ч. 40 м.
Битрейт : 834 Кбит/сек
Ширина : 688 пикселей
Высота : 304 пикселя
Соотношение сторон : 2,25:1
Частота кадров : 25,000 кадров/сек
Цветовое пространство : YUV
Субдискретизация насыщенности : 4:2:0
Битовая глубина : 8 бит
Тип развёртки : Прогрессивная
Метод сжатия : С потерями
Бит/(Пиксели*Кадры) : 0.159
Размер потока : 600 Мбайт (81%)
Библиотека кодирования : XviD 73

Аудио
Идентификатор : 1
Формат : AC-3
Формат/Информация : Audio Coding 3
Идентификатор кодека : 2000
Продолжительность : 1 ч. 40 м.
Вид битрейта : Постоянный
Битрейт : 192 Кбит/сек
Каналы : 2 канала
Расположение каналов : Front: L R
Частота : 48,0 КГц
Частота кадров : 31,250 кадров/сек (1536 SPF)
Битовая глубина : 16 бит
Метод сжатия : С потерями
Размер потока : 138 Мбайт (19%)
Выравнивание : Разделение по промежуткам
Продолжительность промежутка : 40 мс. (1,00 видеокадр)
Время предзагрузки промежутка : 500 мс
pb.wtf



Скачать Повесть пламенных лет через торрент http://i6.imageban.ru/out/2018/04/25/8ba731160c893fbacfcc90a0419ca1f9.png Скачать, смотреть онлайн Повесть пламенных лет бесплантно в хорошем качестве Описание:Первый советский художественный широкоформатный фильм.1941 год. Началась Великая Отечественная война — и колхозник с Приднепровья ... 5 10 1
Info! Золотая раздача, скачанное не засчитывается.
Торрент: Зарегистрирован [2018-04-25 08:50] · скачан: 14 раз
Статус: √ проверено
Размер: 745 MB
Как cкачать? Как скачать Повесть пламенных лет через торрент | UTorrent

% Раздел Тема Автор DL S | L
Кино СССР [ 744 MB ] Повесть пламенных лет [1960 СССР военный SATRip-AVC от AVP Studio] AVP Studio Скачать
1 | 0

28-11-2019 20:33  

Отключить всю рекламу на сайте

    Дорогой пользователь! Огромная просьба, поблагодарите релизера, оцените раздачу и оставьте свои комментарий, если Вы скачали Повесть пламенных лет через торрент бесплатно!
    Комментировать посты могут только пользователи прошедшие не сложную регистрацию
    Показать сообщения:    

    Повесть пламенных лет через торрент
    Скачать бесплатно Повесть пламенных лет
    Повесть пламенных лет скачать торрент
    Повесть пламенных лет смотреть онлайн
    Cкачать фильм Повесть пламенных лет бесплатно
    Повесть пламенных лет скачать торрент в хорошем качестве
    Повесть пламенных лет смотреть онлайн бесплатно в хорошем качестве


    Вы не можете начинать темы
    Вы не можете отвечать на сообщения
    Вы не можете редактировать свои сообщения
    Вы не можете удалять свои сообщения
    Вы не можете голосовать в опросах
    Вы не можете прикреплять файлы к сообщениям
    Вы можете скачивать файлы