новый адрес
Мега распродажа FORZA HORIZON 4 ULTIMATE+ВСЕ DLC+ОНЛАЙН всего за 499р. 349 руб. (супер цена). Внимание количество ограничено!!!

iTunes

1+1

iTunes

мы

iTunes

1

iTunes

Чернобыль

iTunes

Ральф против интернета

Лицензия

ПШазам

Лицензия

Оно 2

Лицензия

30
pack

ВАЖНО

!!Акция!!

Alien_RageХит недели

RePack

Resident Evil 21

ИГРА 18+

pack

RePack

jed

!!Акция!!

Alien_Rage

RePack

fifa19

RePack

Assassins Creed: Odyssey

RePack

NEED FOR SPEED™ PAYBACK

3 сезон

9 сезон

Бесстыжие 9 сезон

Все сериалы

все сериалы на PB.wtf

RePack

FAR CRY 5
Ребята, катастрофически не хватает 1900р. для оплаты серверов за Октябрь (всвязи с блокировками трафик упал в 3 раза), 1-2р., выручайте.
  

Повесть пламенных лет (Юлия Солнцева) [1960, СССР, драма, военный, SATRip-AVC от AVP Studio] pb.wtf

Повесть пламенных лет через торрент pb.wtf

Размер: 744 MB | Добавлен: 1 год 6 мес. назад | Торрент скачан:16 раз
Скачать  

25-04-2018 08:51 Повесть пламенных лет Скачать торрент  

Повесть пламенных лет
Страна: СССР
Производство: Мосфильм

Жанр: драма, военный
Год выпуска: 1960
Продолжительность: 01:40:40

Перевод: Не требуется
Cубтитры: нет
Оригинальная аудиодорожка: русский

Режиссер: Юлия Солнцева

В ролях:
Николай Винграновский, Борис Андреев, Сергей Лукьянов, Василий Меркурьев, Светлана Жгун, Михаил Майоров, Зинаида Кириенко, Борис Бибиков, Волдемар Акуратерс, Владимир Зельдин, Борис Новиков, Евгений Бондаренко, Александр Романенко, Антонина Богданова, Сергей Петров, Вера Капустина, Майя Булгакова...
Об актёрах подробней

Описание:
Первый советский художественный широкоформатный фильм.
1941 год. Началась Великая Отечественная война — и колхозник с Приднепровья Иван Орлюк стал солдатом. Он был участником первых боев на Днепре и дошел до Берлина. А вернувшись домой, провёл первый сев на освобожденной земле.

Исходник: DVB
Качество видео: SATRip-AVC
Формат видео: MKV

Видео: 696->837x370 (2,25:1), 25,000 кадров/сек, H264 ~ 840 kbps avg, 0.130 bit/pixel
Аудио: 48 kHz, Dolby Digital AC3 2.0, 192 kbps

Раздача от:
Общее
Полное имя : Povest.plamennyh.let.1960.SATRip-AVC_[New-team]_by_AVP_Studio.mkv
Формат : Matroska
Версия формата : Version 2
Размер файла : 744 Мбайт
Продолжительность : 1 ч. 40 м.
Общий поток : 1034 Кбит/сек
Дата кодирования : UTC 2018-04-24 10:29:43
Программа кодирования : mkvmerge v6.1.0 ('Old Devil') built on Mar 4 2013 09:10:42
Библиотека кодирования : libebml v1.3.0 + libmatroska v1.4.0

Видео
Идентификатор : 1
Формат : AVC
Формат/Информация : Advanced Video Codec
Профиль формата : High@L4.1
Настройки формата : CABAC / 10 Ref Frames
Параметр CABAC формата : Да
Параметр RefFrames формата : 10 кадров
Идентификатор кодека : V_MPEG4/ISO/AVC
Продолжительность : 1 ч. 40 м.
Битрейт : 840 Кбит/сек
Ширина : 696 пикселей
Высота : 370 пикселей
Соотношение сторон : 2,25:1
Соотношение сторон в оригинале : 2,25:1
Режим частоты кадров : Постоянный
Частота кадров : 25,000 кадров/сек
Цветовое пространство : YUV
Субдискретизация насыщенности : 4:2:0
Битовая глубина : 8 бит
Тип развёртки : Прогрессивная
Бит/(Пиксели*Кадры) : 0.130
Размер потока : 591 Мбайт (79%)
Библиотека кодирования : x264 core 130 r2273 b3065e6
Настройки программы : cabac=1 / ref=10 / deblock=1:-2:-1 / analyse=0x3:0x113 / me=umh / subme=10 / psy=1 / psy_rd=1.00:0.00 / mixed_ref=1 / me_range=32 / chroma_me=1 / trellis=2 / 8x8dct=1 / cqm=0 / deadzone=21,11 / fast_pskip=1 / chroma_qp_offset=-2 / threads=6 / lookahead_threads=1 / sliced_threads=0 / nr=0 / decimate=0 / interlaced=0 / bluray_compat=0 / constrained_intra=0 / bframes=8 / b_pyramid=2 / b_adapt=2 / b_bias=0 / direct=3 / weightb=1 / open_gop=0 / weightp=2 / keyint=250 / keyint_min=25 / scenecut=40 / intra_refresh=0 / rc=2pass / mbtree=0 / bitrate=840 / ratetol=1.0 / qcomp=0.60 / qpmin=0 / qpmax=69 / qpstep=4 / cplxblur=20.0 / qblur=0.5 / ip_ratio=1.40 / pb_ratio=1.30 / aq=1:1.00
Default : Да
Forced : Нет

Аудио
Идентификатор : 2
Формат : AC-3
Формат/Информация : Audio Coding 3
Идентификатор кодека : A_AC3
Продолжительность : 1 ч. 40 м.
Вид битрейта : Постоянный
Битрейт : 192 Кбит/сек
Каналы : 2 канала
Расположение каналов : Front: L R
Частота : 48,0 КГц
Частота кадров : 31,250 кадров/сек (1536 SPF)
Битовая глубина : 16 бит
Метод сжатия : С потерями
Размер потока : 138 Мбайт (19%)
Default : Да
Forced : Нет
pb.wtf



Скачать Повесть пламенных лет через торрент http://i6.imageban.ru/out/2018/04/25/8ba731160c893fbacfcc90a0419ca1f9.png Скачать фильм Повесть пламенных лет через торрент бесплантно в хорошем качестве Описание:Первый советский художественный широкоформатный фильм.1941 год. Началась Великая Отечественная война — и колхозник с Приднепровья ... 9 10 1
Info! Золотая раздача, скачанное не засчитывается.
Торрент: Зарегистрирован [2018-04-25 08:51] · скачан: 16 раз
Статус: √ проверено
Размер: 744 MB
Как cкачать? Как скачать Повесть пламенных лет через торрент | qTorrent

% Раздел Тема Автор DL S | L
Кино СССР [ 745 MB ] Повесть пламенных лет [1960 СССР военный SATRip от AVP Studio] AVP Studio Скачать
1 | 0


>> Регистрируемся здесь <<






Отзывы и комментарии о схеме читаем и пишем здесь: ---> Отзывы и комментарии о схеме

Новые благодарочки в телеграм довольных пользователей:
скриншот   скриншот   скриншот   скриншот   скриншот
    Дорогой пользователь! Огромная просьба, поблагодарите релизера, оцените раздачу и оставьте свои комментарий, если Вы скачали Повесть пламенных лет через торрент бесплатно! Внесите свою лепту в развитие PiratBit!
    Комментировать посты могут только пользователи прошедшие не сложную регистрацию
    Показать сообщения:    

    Повесть пламенных лет через торрент
    Скачать бесплатно Повесть пламенных лет
    Повесть пламенных лет скачать торрент
    Повесть пламенных лет смотреть онлайн
    Cкачать фильм Повесть пламенных лет бесплатно
    Повесть пламенных лет скачать торрент в хорошем качестве
    Повесть пламенных лет смотреть онлайн бесплатно в хорошем качестве


    Вы не можете начинать темы
    Вы не можете отвечать на сообщения
    Вы не можете редактировать свои сообщения
    Вы не можете удалять свои сообщения
    Вы не можете голосовать в опросах
    Вы не можете прикреплять файлы к сообщениям
    Вы можете скачивать файлы