Ссылка на приватное зеркало всего за 1$. Внимание количество ограничено!!!

OK

1+1

iTunes

мы

OK

1

WEB-DLRip

Джокер

Пифагор

Ведьмак / The Witcher сериал

Лицензия

ПШазам

ОК

Оно 2

iTunes

30
pack

Вам бонус

ВАЖНО

!!Акция!!

Alien_RageХит недели

RePack

Resident Evil 21

ИГРА 18+

pack

RePack

jed

RePack

fifa19

RePack

Assassins Creed: Odyssey

RePack

NEED FOR SPEED™ PAYBACK

4 сезон

9 сезон

Бесстыжие 9 сезон

Все сериалы

все сериалы на PB.wtf

RePack

FAR CRY 5
  

И гаснет свет / Dim the Fluorescents (Даниэль Варт) [2017, драма, комедия, WEB-DL 720p] MVO ["Синема УС"] pb.wtf

И гаснет свет через торрент pb.wtf

Размер: 4.51 GB | Добавлен: 1 год 8 мес. назад | Торрент скачан:15 раз
Скачать  

25-04-2018 10:08 И гаснет свет Скачать торрент  

И гаснет свет / Dim the FluorescentsГод выпуска: 2017
Страна: Канада
Жанр: драма, комедия
Продолжительность: 02:10:33
Перевод: Любительский (многоголосый) | "Синема УС"
Субтитры: отсутствуют

Режиссер: Даниэль Варт

rating

В ролях:

Клэр Армстронг, Наоми Скварна, Андреана Каллегарини-Градзик, Брендан Обин, Клэр Макконнелл, Т. Грэхэм, Джоселин Рейнольдс, Анна Магвайр, Лаура Тангуэй, Талия Кейн

Описание:

Они живут и работают вместе - актриса и сценарист. Они вкладывают все силы и всю свою творческую энергию в те немногие проекты, которые им предлагают. Однако в тот самый момент, когда они начинают работать над самым большим своим представлением, в их отношениях наступает кризис.

Качество: WEB-DL 720p
Формат: MKV

Видео: h.264, 4 558 kb/s, 1280x540
Аудио#1: AC3, 2 ch, 384 Кбит/с
скриншот  скриншот  скриншот  

Общее
Уникальный идентификатор : 188992679092646007795267264112980371331 (0x8E2EAA7E8BF4B618A8C477F4C353A783)
Полное имя : D:\Dim.the.Fluorescents.2017.P.WEB-DL.72Op_KOSHARA.mkv
Формат : Matroska
Версия формата : Version 2
Размер файла : 4,51 Гбайт
Продолжительность : 2 ч. 10 м.
Режим общего битрейта : Переменный
Общий поток : 4944 Кбит/сек
Дата кодирования : UTC 2018-04-13 16:25:12
Программа кодирования : mkvmerge v8.3.0 ('Over the Horizon') 64bit
Библиотека кодирования : libebml v1.3.1 + libmatroska v1.4.2

Видео
Идентификатор : 1
Формат : AVC
Формат/Информация : Advanced Video Codec
Профиль формата : High@L4.1
Параметр CABAC формата : Да
Параметр RefFrames формата : 4 кадра
Идентификатор кодека : V_MPEG4/ISO/AVC
Продолжительность : 2 ч. 10 м.
Вид битрейта : Переменный
Битрейт : 4558 Кбит/сек
Максимальный битрейт : 5200 Кбит/сек
Ширина : 1280 пикселей
Высота : 540 пикселей
Соотношение сторон : 2,40:1
Режим частоты кадров : Постоянный
Частота кадров : 23,976 (24000/1001) кадра/сек
Стандарт вещания : Component
Цветовое пространство : YUV
Субдискретизация насыщенности : 4:2:0
Битовая глубина : 8 бит
Тип развёртки : Прогрессивная
Бит/(Пиксели*Кадры) : 0.269
Размер потока : 4,07 Гбайт (90%)
Default : Да
Forced : Нет
Цветовой диапазон : Limited
Основные цвета : BT.709
Характеристики трансфера : BT.709
Коэффициенты матрицы : BT.709

Аудио
Идентификатор : 2
Формат : AC-3
Формат/Информация : Audio Coding 3
Расширение режима : CM (complete main)
Параметр Endianness формата : Big
Идентификатор кодека : A_AC3
Продолжительность : 2 ч. 10 м.
Вид битрейта : Постоянный
Битрейт : 384 Кбит/сек
Каналы : 2 канала
Расположение каналов : Front: L R
Частота : 48,0 КГц
Частота кадров : 31,250 кадров/сек (1536 spf)
Метод сжатия : С потерями
Размер потока : 359 Мбайт (8%)
Default : Да
Forced : Нет

pb.wtf



Скачать И гаснет свет через торрент http://img12.lostpic.net/2018/04/25/b9c19e488b5cb07aa20da24b2f07a8c8.jpg Скачать фильм И гаснет свет через торрент бесплантно в хорошем качестве Описание: Они живут и работают вместе - актриса и сценарист. Они вкладывают все силы и всю свою творческую энергию в те немногие проекты, ... 10 10 3
Торрент: Зарегистрирован [2018-04-25 10:08] · скачан: 15 раз
Статус: T временная
Размер: 4.51 GB
Как cкачать? Как скачать И гаснет свет через торрент | qTorrent

% Раздел Тема Автор DL S | L
T Фильмы (мультфильмы) cо спонсором показа (Новинки AVI/MKV) [ 2.05 GB ] И гаснет свет / Dim the Fluorescents [2017 WEB-DLRip] MVO ["Синема УС"] bober100 Скачать
1 | 0
T Фильмы (мультфильмы) cо спонсором показа (Новинки AVI/MKV) [ 1.37 GB ] И гаснет свет / Dim the Fluorescents [2017 WEB-DLRip] MVO ["Синема УС"] bober100 Скачать
1 | 0

28-11-2019 20:33  

Отключить всю рекламу на сайте

    Дорогой пользователь! Огромная просьба, поблагодарите релизера, оцените раздачу и оставьте свои комментарий, если Вы скачали И гаснет свет через торрент бесплатно! Внесите свою лепту в развитие PiratBit!
    Комментировать посты могут только пользователи прошедшие не сложную регистрацию
    Показать сообщения:    

    И гаснет свет через торрент
    Скачать бесплатно И гаснет свет
    И гаснет свет скачать торрент
    И гаснет свет смотреть онлайн
    Cкачать фильм И гаснет свет бесплатно
    И гаснет свет скачать торрент в хорошем качестве
    И гаснет свет смотреть онлайн бесплатно в хорошем качестве


    Вы не можете начинать темы
    Вы не можете отвечать на сообщения
    Вы не можете редактировать свои сообщения
    Вы не можете удалять свои сообщения
    Вы не можете голосовать в опросах
    Вы не можете прикреплять файлы к сообщениям
    Вы можете скачивать файлы