Ссылка на приватное зеркало всего за 1$. Внимание количество ограничено!!!

OK

1+1

iTunes

мы

OK

1

WEB-DLRip

Джокер

Пифагор

Ведьмак / The Witcher сериал

Лицензия

ПШазам

ОК

Оно 2

iTunes

30
pack

Вам бонус

ВАЖНО

!!Акция!!

Alien_RageХит недели

RePack

Resident Evil 21

ИГРА 18+

pack

RePack

jed

!!Акция!!

Alien_Rage

RePack

fifa19

RePack

Assassins Creed: Odyssey

RePack

NEED FOR SPEED™ PAYBACK

4 сезон

9 сезон

Бесстыжие 9 сезон

Все сериалы

все сериалы на PB.wtf

RePack

FAR CRY 5
  

Увольнение / Despido procedente (Лукас Фигуэра) [2017, комедия, WEB-DL 720p] MVO ["Синема УС"] pb.wtf

Увольнение через торрент pb.wtf

Размер: 3.17 GB | Добавлен: 1 год 8 мес. назад | Торрент скачан:34 раза
Скачать  

25-04-2018 11:48 Увольнение Скачать торрент  

Увольнение / Despido procedenteГод выпуска: 2017
Страна: Аргентина, Испания
Жанр: комедия
Продолжительность: 01:31:40
Перевод: Любительский (многоголосый) | "Синема УС"
Субтитры: отсутствуют

Режиссер: Лукас Фигуэра

rating

В ролях:

Иманоль Ариас, Дарио Грандинетти, Уго Сильва, Луис Луке, Мигель Анхель Сола, Паула Кансио, Валерия Алонсо, Томас Поцци, Хуан Грандинетти, Педро Касабланк

Описание:

Хавьер Фернандез работает в компании, занимающейся телекоммуникациями. Головной офис в Испании считает, что компания развивается, но жадность управленческого состава в Аргентине заставляет филиал в Буэнос Айресе проводить сокращения. Хавьер пытается всеми силами сохранить сотрудников в своём отделе, но его жизнь осложняется появлением странного незнакомца, который требует триста тысяч долларов или увольнения самого Хавьера...

Качество: WEB-DL 720p
Формат: MKV

Видео: h.264, 4 568 kb/s, 1280x536
Аудио#1: Русский (AC3, 2 ch, 384 Кбит/с)
скриншот  скриншот  

Общее
Уникальный идентификатор : 173462723802139439353155158882679185789 (0x827FB495216A5AECB99FE27D161AE17D)
Полное имя : D:\Despido Procedente.2O17.P.WEB-DL.72Op_KOSHARA.mkv
Формат : Matroska
Версия формата : Version 2
Размер файла : 3,17 Гбайт
Продолжительность : 1 ч. 31 м.
Режим общего битрейта : Переменный
Общий поток : 4954 Кбит/сек
Дата кодирования : UTC 2018-04-18 14:23:28
Программа кодирования : mkvmerge v8.3.0 ('Over the Horizon') 64bit
Библиотека кодирования : libebml v1.3.1 + libmatroska v1.4.2

Видео
Идентификатор : 1
Формат : AVC
Формат/Информация : Advanced Video Codec
Профиль формата : High@L4.1
Параметр CABAC формата : Да
Параметр RefFrames формата : 4 кадра
Идентификатор кодека : V_MPEG4/ISO/AVC
Продолжительность : 1 ч. 31 м.
Вид битрейта : Переменный
Битрейт : 4568 Кбит/сек
Максимальный битрейт : 5000 Кбит/сек
Ширина : 1280 пикселей
Высота : 536 пикселей
Соотношение сторон : 2,40:1
Режим частоты кадров : Постоянный
Частота кадров : 23,976 (24000/1001) кадра/сек
Стандарт вещания : Component
Цветовое пространство : YUV
Субдискретизация насыщенности : 4:2:0
Битовая глубина : 8 бит
Тип развёртки : Прогрессивная
Бит/(Пиксели*Кадры) : 0.272
Размер потока : 2,86 Гбайт (90%)
Default : Да
Forced : Нет
Цветовой диапазон : Limited
Основные цвета : BT.709
Характеристики трансфера : BT.709
Коэффициенты матрицы : BT.709

Аудио
Идентификатор : 2
Формат : AC-3
Формат/Информация : Audio Coding 3
Расширение режима : CM (complete main)
Параметр Endianness формата : Big
Идентификатор кодека : A_AC3
Продолжительность : 1 ч. 31 м.
Вид битрейта : Постоянный
Битрейт : 384 Кбит/сек
Каналы : 2 канала
Расположение каналов : Front: L R
Частота : 48,0 КГц
Частота кадров : 31,250 кадров/сек (1536 spf)
Метод сжатия : С потерями
Размер потока : 252 Мбайт (8%)
Default : Да
Forced : Нет

pb.wtf



Скачать Увольнение через торрент https://b.radikal.ru/b03/1804/3d/58d779e22214.jpg Скачать фильм Увольнение через торрент бесплантно в хорошем качестве Описание: Хавьер Фернандез работает в компании, занимающейся телекоммуникациями. Головной офис в Испании считает, что компания развивается, ... 10 10 2
Торрент: Зарегистрирован [2018-04-25 11:48] · скачан: 34 раз
Статус: T временная
Размер: 3.17 GB
Как cкачать? Как скачать Увольнение через торрент | qTorrent

% Раздел Тема Автор DL S | L
T Фильмы (мультфильмы) cо спонсором показа (Новинки AVI/MKV) [ 1.37 GB ] Увольнение / Despido procedente [2017 WEB-DLRip] MVO ["Синема УС"] bober100 Скачать
1 | 0

28-11-2019 20:33  

Отключить всю рекламу на сайте

    Дорогой пользователь! Огромная просьба, поблагодарите релизера, оцените раздачу и оставьте свои комментарий, если Вы скачали Увольнение через торрент бесплатно! Внесите свою лепту в развитие PiratBit!
    Комментировать посты могут только пользователи прошедшие не сложную регистрацию
    Показать сообщения:    

    Увольнение через торрент
    Скачать бесплатно Увольнение
    Увольнение скачать торрент
    Увольнение смотреть онлайн
    Cкачать фильм Увольнение бесплатно
    Увольнение скачать торрент в хорошем качестве
    Увольнение смотреть онлайн бесплатно в хорошем качестве


    Вы не можете начинать темы
    Вы не можете отвечать на сообщения
    Вы не можете редактировать свои сообщения
    Вы не можете удалять свои сообщения
    Вы не можете голосовать в опросах
    Вы не можете прикреплять файлы к сообщениям
    Вы можете скачивать файлы