Ссылка на приватное зеркало нашего сайта всего за 1$. Внимание количество ограничено!!!

2 сезон

iTunes

1 сезон

1

2 сезон

2 сезон

iTunes

1 сезон

RePack

30

Ultimate

ВАЖНО

ИГРА 18+

pack

RePack

MK11
pack

Забери бонус

RePack

jed

!!Акция!!

Alien_Rage

RePack

fifa19

RePack

Assassins Creed: Odyssey

RePack

NEED FOR SPEED™ PAYBACK

4 сезон

9 сезон

Бесстыжие 9 сезон

Все сериалы

все сериалы на PB.wtf

RePack

FAR CRY 5
  

Взрослые игры / Flower (Макс Уинкле) [2017, Комедия, драма, криминал, WEB-DL 1080p] MVO [iTunes] pb.wtf

Взрослые игры через торрент pb.wtf

Раздают: 1 [ 0.1 KB/s ]
Размер: 3.65 GB | Добавлен: 2 года 7 мес. назад | Торрент скачан:620 раз
Скачать  

26-04-2018 05:50 Взрослые игры Скачать торрент  

Взрослые игры / FlowerГод выпуска: 2017
Страна: США
Жанр: Комедия, драма, криминал
Продолжительность: 01:33:35
Перевод: Профессиональный многоголосый | iTunes
Субтитры: отсутствуют

Режиссер: Макс Уинкле

rating

В ролях:

Зои Дойч, Кэтрин Хан, Адам Скотт, Дилан Гелула, Эрик Эдельштейн, Тим Хайдекер, Майя Эшет, Джои Морган, Роми Бирн, Джоэл Хебнер

Описание:

Бесстыжая и бесстрашная Эрика готова на любые выходки, лишь бы почувствовать настоящую взрослую жизнь. Для этого у Эрики есть две веселые подруги, одно необычное хобби и целая Калифорния. Далекие от невинности забавы меняются, когда отчим знакомит Эрику со своим сыном. Кажется, у этого неуклюжего и ранимого парня нет с девушкой ничего общего, однако вскоре он перевернет ее жизнь, и дерзкая инди-комедия обернется для героев криминальным роуд-муви по солнечным просторам долины Сан-Фернандо.

Качество: WEB-DL 1080p
Формат: MKV

Видео: 1912x1028 (1.85:1), 23.976 fps, MPEG-4 AVC ~5 087 kbps avg
Аудио: 48.0 kHz, AC3 Dolby Digital, 3/2 (L,C,R,l,r) + LFE ch, ~384 kbps
скриншот   скриншот   скриншот   скриншот  

General
Unique ID : 216557081138516906108931212478929057188 (0xA2EB6070F17621568635280F2D6A35A4)
Complete name : Flower.2O18.P.WEB-DL.1O8Op.mkv
Format : Matroska
Format version : Version 2
File size : 3.65 GiB
Duration : 1h 33mn
Overall bit rate : 5 582 Kbps
Encoded date : UTC 2018-04-25 18:32:51
Writing application : mkvmerge v8.3.0 ('Over the Horizon') 64bit
Writing library : libebml v1.3.1 + libmatroska v1.4.2

Video
ID : 1
Format : AVC
Format/Info : Advanced Video Codec
Format profile : High@L4
Format settings, CABAC : Yes
Format settings, ReFrames : 4 frames
Codec ID : V_MPEG4/ISO/AVC
Duration : 1h 33mn
Bit rate : 5 087 Kbps
Width : 1 912 pixels
Height : 1 028 pixels
Display aspect ratio : 1.85:1
Frame rate mode : Constant
Frame rate : 23.976 fps
Color space : YUV
Chroma subsampling : 4:2:0
Bit depth : 8 bits
Scan type : Progressive
Bits/(Pixel*Frame) : 0.108
Stream size : 3.33 GiB (91%)
Language : English
Default : Yes
Forced : No
Color range : Limited
Color primaries : BT.709
Transfer characteristics : BT.709
Matrix coefficients : BT.709

Audio
ID : 2
Format : AC-3
Format/Info : Audio Coding 3
Mode extension : CM (complete main)
Format settings, Endianness : Big
Codec ID : A_AC3
Duration : 1h 33mn
Bit rate mode : Constant
Bit rate : 384 Kbps
Channel(s) : 6 channels
Channel positions : Front: L C R, Side: L R, LFE
Sampling rate : 48.0 KHz
Compression mode : Lossy
Stream size : 257 MiB (7%)
Language : Russian
Default : Yes
Forced : No

Menu
00:00:00.000 : en:1
00:00:40.000 : en:2
00:07:43.000 : en:3
00:17:25.000 : en:4
00:27:10.000 : en:5
00:38:56.000 : en:6
00:49:47.000 : en:7
01:01:39.000 : en:8
01:10:56.000 : en:9
01:23:49.000 : en:10
01:27:03.000 : en:11

pb.wtf



Скачать Взрослые игры через торрент http://img12.lostpic.net/2018/04/24/f094585db50a7e327cb238e13c665f84.jpg Скачать фильм Взрослые игры через торрент бесплантно в хорошем качестве Описание: Бесстыжая и бесстрашная Эрика готова на любые выходки, лишь бы почувствовать настоящую взрослую жизнь. Для этого у Эрики есть две ... 9.2 10 9
Торрент: Зарегистрирован [2018-04-26 05:50] · скачан: 620 раз
Статус: √ проверено
Размер: 3.65 GB
Как cкачать? Как скачать Взрослые игры через торрент | qTorrent

% Раздел Тема Автор DL S | L
Фильмы 2017 [DVDrip, WEB-DLRip, HDrip] (DUB, MVO) [ 1.5 GB ] Взрослые игры / Flower [2017 WEB-DLRip-AVC] MVO - ExKinoRay Enigma2010 Скачать
2 | 0
Видео для КПК и Смартфонов [ 356 MB ] Взрослые игры / Flower [2017 WEB-DLRip] MVO sergey82 Скачать
1 | 0
Фильмы 2017 [DVDrip, WEB-DLRip, HDrip] (DUB, MVO) [ 1.37 GB ] Взрослые игры / Flower [2017 WEB-DLRip] MVO bober100 Скачать
1 | 0

28-11-2019 20:33  

Отключить всю рекламу на сайте

06-05-2018 20:12 Взрослые игры Скачать торрент  

Отличный фильм! Большое спасибо :)pb.wtf



    Дорогой пользователь! Огромная просьба, поблагодарите релизера, оцените раздачу и оставьте свои комментарий, если Вы скачали Взрослые игры через торрент бесплатно! Внесите свою лепту в развитие PiratBit!
    Комментировать посты могут только пользователи прошедшие не сложную регистрацию
    Показать сообщения:    

    Взрослые игры через торрент
    Скачать бесплатно Взрослые игры
    Взрослые игры скачать торрент
    Взрослые игры смотреть онлайн
    Cкачать фильм Взрослые игры бесплатно
    Взрослые игры скачать торрент в хорошем качестве
    Взрослые игры смотреть онлайн бесплатно в хорошем качестве


    Вы не можете начинать темы
    Вы не можете отвечать на сообщения
    Вы не можете редактировать свои сообщения
    Вы не можете удалять свои сообщения
    Вы не можете голосовать в опросах
    Вы не можете прикреплять файлы к сообщениям
    Вы можете скачивать файлы