Ссылка на приватное зеркало нашего сайта всего за 1$. Внимание количество ограничено!!!

2 сезон

iTunes

1 сезон

1

2 сезон

2 сезон

iTunes

1 сезон

RePack

30

Ultimate

ВАЖНО

ИГРА 18+

pack

RePack

MK11
pack

Забери бонус

RePack

jed

!!Акция!!

Alien_Rage

RePack

fifa19

RePack

Assassins Creed: Odyssey

RePack

NEED FOR SPEED™ PAYBACK

4 сезон

9 сезон

Бесстыжие 9 сезон

Все сериалы

все сериалы на PB.wtf

RePack

FAR CRY 5
  

Мумия / The Mummy (Стивен Соммерс) [1999 г., фэнтези, боевик, приключения, HDDVDRip 1080p, HEVC (10 bit), Профессиональный (многоголосый)] pb.wtf

Мумия через торрент pb.wtf

Раздают: 2 [ 0 KB/s ]
Размер: 5.54 GB | Добавлен: 2 года 7 мес. назад | Торрент скачан:188 раз
Скачать  

26-04-2018 06:22 Мумия Скачать торрент  

Мумия / The Mummy
Год выпуска: 1999
Страна: США
Жанр: фэнтези, боевик, приключения
Продолжительность: 02:04:53
Перевод: Профессиональный (многоголосый)
Субтитры: Русские, Английские

Режиссер: Стивен Соммерс

rating

В ролях: Брендан Фрейзер, Рэйчел Вайз, Джон Ханна, Арнольд Вослоу, Кевин Дж. О`Коннор, Одед Фер, Джонатан Хайд, Эрик Эвари, Бернард Фокс, Стивен Данхэм, Кори Джонсон, Омид Джалили

Описание: На бескрайних просторах египетской пустыни компания сорвиголов разных национальностей рыщет в поисках несметных сокровищ фараона, над которыми тяготеет жуткое древнее проклятие.
Рядом с кладом покоится мумия коварного жреца, жестоко казненного за ужасное убийство могущественного правителя Египта. Золотоискатели потревожили многовековой покой гробницы, и мумия встает из могилы, чтобы погрузить мир в царство кошмара…
Доп. информация: - H.265/HEVC (High Efficiency Video Coding) - это новый стандарт кодирования видео.
- Стандарт H.265/HEVC является логическим продолжением стандарта H.264/AVC (Advanced Video Coding), и характеризуется более эффективными алгоритмами сжатия, а также поддержкой высокого разрешения вплоть до 8K UHD (8192x4320). Первая версия стандарта H.265 была опубликована в начале 2013 года.
- Рипы в фомате HEVC поддерживается не всеми аппаратными проигрывателями.
- Для корректного воспроизведения может потребоваться обновление ПО.
- Владельцам несовместимого железа просьба не беспокоить, есть альтернативные релизы.
Качество: HDDVDRip 1080p
Формат: MKV
Видео кодек: H.265
Аудио кодек: AC3
Видео: 1920x814, ~5517 Kbps
Аудио#1: AC3, 6 ch, 448 Kbps (MVO)
Аудио#2: AC3, 6 ch, 384 Kbps (Оригинал)
Релиз от: Cthulhu
Общее
Уникальный идентификатор : 175207766421173176642598187261733718426 (0x83CFC9D38839D25AB40C7368D895499A)
Полное имя : J:\ФИЛЬМЫ\The Mummy (1999) HD-DVDRip 1080p [HEVC] 10Bit.mkv
Формат : Matroska
Версия формата : Version 4 / Version 2
Размер файла : 5,54 Гбайт
Продолжительность : 2 ч. 4 м.
Общий поток : 6346 Кбит/сек
Название фильма : rip_by_Cthulhu
Дата кодирования : UTC 2017-10-25 17:02:32
Программа кодирования : mkvmerge v13.0.0 ('The Juggler') 64bit
Библиотека кодирования : libebml v1.3.4 + libmatroska v1.4.5
Обложка : Yes
Attachments : cover2.jpg

Видео
Идентификатор : 1
Формат : HEVC
Формат/Информация : High Efficiency Video Coding
Профиль формата : Main 10@L4.1@High
Идентификатор кодека : V_MPEGH/ISO/HEVC
Продолжительность : 2 ч. 4 м.
Битрейт : 5517 Кбит/сек
Ширина : 1920 пикселей
Высота : 814 пикселей
Соотношение сторон : 2,35:1
Режим частоты кадров : Постоянный
Частота кадров : 23,976 (24000/1001) кадра/сек
Цветовое пространство : YUV
Субдискретизация насыщенности : 4:2:0
Битовая глубина : 10 бит
Бит/(Пиксели*Кадры) : 0.147
Размер потока : 4,81 Гбайт (87%)
Библиотека кодирования : x265 2.5+20-0967d0add97e:[Windows][GCC 7.2.0][64 bit] 10bit
Настройки программы : cpuid=1050111 / frame-threads=4 / numa-pools=4 / wpp / no-pmode / no-pme / no-psnr / no-ssim / log-level=2 / input-csp=1 / input-res=1920x814 / interlace=0 / total-frames=0 / level-idc=41 / high-tier=1 / uhd-bd=0 / ref=4 / no-allow-non-conformance / no-repeat-headers / annexb / no-aud / no-hrd / info / hash=0 / no-temporal-layers / open-gop / min-keyint=23 / keyint=240 / bframes=10 / b-adapt=2 / b-pyramid / bframe-bias=0 / rc-lookahead=40 / lookahead-slices=4 / scenecut=40 / no-intra-refresh / ctu=64 / min-cu-size=8 / rect / no-amp / max-tu-size=32 / tu-inter-depth=2 / tu-intra-depth=2 / limit-tu=0 / rdoq-level=2 / dynamic-rd=0.00 / no-ssim-rd / signhide / no-tskip / nr-intra=0 / nr-inter=0 / no-constrained-intra / strong-intra-smoothing / max-merge=3 / limit-refs=3 / limit-modes / me=2 / subme=7 / merange=32 / temporal-mvp / weightp / weightb / no-analyze-src-pics / deblock=-3:-3 / no-sao / no-sao-non-deblock / rd=3 / no-early-skip / rskip / no-fast-intra / no-tskip-fast / no-cu-lossless / no-b-intra / no-splitrd-skip / rdpenalty=0 / psy-rd=2.00 / psy-rdoq=0.00 / no-rd-refine / analysis-reuse-mode=0 / no-lossless / cbqpoffs=0 / crqpoffs=0 / rc=crf / crf=19.0 / qcomp=0.60 / qpstep=4 / stats-write=0 / stats-read=0 / vbv-maxrate=50000 / vbv-bufsize=50000 / vbv-init=0.9 / crf-max=0.0 / crf-min=0.0 / ipratio=1.40 / pbratio=1.30 / aq-mode=2 / aq-strength=1.00 / cutree / zone-count=0 / no-strict-cbr / qg-size=32 / no-rc-grain / qpmax=69 / qpmin=0 / no-const-vbv / sar=0 / overscan=0 / videoformat=5 / range=0 / colorprim=2 / transfer=2 / colormatrix=1 / chromaloc=0 / display-window=0 / max-cll=0,0 / min-luma=0 / max-luma=1023 / log2-max-poc-lsb=8 / vui-timing-info / vui-hrd-info / slices=1 / opt-qp-pps / opt-ref-list-length-pps / no-multi-pass-opt-rps / scenecut-bias=0.05 / no-opt-cu-delta-qp / aq-motion / no-hdr / no-hdr-opt / no-dhdr10-opt / analysis-reuse-level=5 / scale-factor=0 / refine-intra=0 / refine-inter=0 / refine-mv=0 / no-limit-sao / ctu-info=0
Язык : English
Default : Да
Forced : Да
Цветовой диапазон : Limited
Коэффициенты матрицы : BT.709

Аудио #1
Идентификатор : 2
Формат : AC-3
Формат/Информация : Audio Coding 3
Идентификатор кодека : A_AC3
Продолжительность : 2 ч. 4 м.
Вид битрейта : Постоянный
Битрейт : 448 Кбит/сек
Каналы : 6 каналов
Расположение каналов : Front: L C R, Side: L R, LFE
Частота : 48,0 КГц
Частота кадров : 31,250 кадров/сек (1536 SPF)
Битовая глубина : 16 бит
Метод сжатия : С потерями
Размер потока : 400 Мбайт (7%)
Заголовок : MVO
Язык : Russian
ServiceKind/String : Complete Main
Default : Да
Forced : Нет

Аудио #2
Идентификатор : 3
Формат : AC-3
Формат/Информация : Audio Coding 3
Идентификатор кодека : A_AC3
Продолжительность : 2 ч. 4 м.
Вид битрейта : Постоянный
Битрейт : 384 Кбит/сек
Каналы : 6 каналов
Расположение каналов : Front: L C R, Side: L R, LFE
Частота : 48,0 КГц
Частота кадров : 31,250 кадров/сек (1536 SPF)
Битовая глубина : 16 бит
Метод сжатия : С потерями
Размер потока : 343 Мбайт (6%)
Заголовок : English
Язык : English
ServiceKind/String : Complete Main
Default : Нет
Forced : Нет

Текст #1
Идентификатор : 4
Формат : UTF-8
Идентификатор кодека : S_TEXT/UTF8
Идентификатор кодека/Информация : UTF-8 Plain Text
Продолжительность : 1 ч. 55 м.
Битрейт : 71 бит/сек
ElementCount : 1127
Размер потока : 60,0 Кбайт (0%)
Язык : Russian
Default : Да
Forced : Нет

Текст #2
Идентификатор : 5
Формат : UTF-8
Идентификатор кодека : S_TEXT/UTF8
Идентификатор кодека/Информация : UTF-8 Plain Text
Продолжительность : 1 ч. 55 м.
Битрейт : 40 бит/сек
ElementCount : 1046
Размер потока : 34,6 Кбайт (0%)
Язык : English
Default : Нет
Forced : Нет

Меню
00:00:00.000 : en:Chapter 1
00:07:10.430 : en:Chapter 2
00:12:19.155 : en:Chapter 3
00:23:19.731 : en:Chapter 4
00:29:03.116 : en:Chapter 5
00:36:46.120 : en:Chapter 6
00:43:38.907 : en:Chapter 7
00:49:06.610 : en:Chapter 8
00:53:33.877 : en:Chapter 9
00:57:29.654 : en:Chapter 10
01:11:13.352 : en:Chapter 11
01:18:48.306 : en:Chapter 12
01:27:29.619 : en:Chapter 13
01:30:03.898 : en:Chapter 14
01:36:32.870 : en:Chapter 15
01:43:58.023 : en:Chapter 16
01:49:44.661 : en:Chapter 17
01:56:51.671 : en:Chapter 18

pb.wtf



Скачать Мумия через торрент https://c.radikal.ru/c22/1804/fd/881a28d85c1e.jpg Скачать фильм Мумия через торрент бесплантно в хорошем качестве Описание: На бескрайних просторах египетской пустыни компания сорвиголов разных национальностей рыщет в поисках несметных сокровищ фараона, ... 9.9 10 7
Торрент: Зарегистрирован [2018-04-26 06:22] · скачан: 188 раз
Статус: √ проверено
Размер: 5.54 GB
Как cкачать? Как скачать Мумия через торрент | qTorrent

% Раздел Тема Автор DL S | L
Ultra HD (UHD: 2K, 4K, 8K) — видео сверхвысокой чёткости [ 205.8 GB ] Мумия: Трилогия / The Mummy: Trilogy [1999 2001 2008 UHD BDRemux 2160] [Dub + MVO + DVO + AVO] Russian Mafia Скачать
2 | 1
Фильмы (HD 720p, 1080p) (48-60 fps) [ 7.03 GB ] Мумия возвращается / The Mummy Returns [2001 BDRip 720p ] slaventi-69 Скачать
1 | 0
Фильмы (HD 720p, 1080p) (48-60 fps) [ 4.88 GB ] Мумия: Гробница Императора Драконов / The Mummy: Tomb of the Dragon Emperor [2008 BDRip 720p ] slaventi-69 Скачать
1 | 0
Фильмы (HD 720p, 1080p) (48-60 fps) [ 9.17 GB ] Мумия / The Mummy [2017 BDRip 720p / 60 FPS Dub AVO Original] Tiberiumsun69 Скачать
5 | 0
Фильмы (Blu-ray, BD-Remux, HDDVD) [ 36.73 GB ] Мумия / The Mummy [2017 BDRemux 1080p] DUB [] + 3xAVO sheker187 Скачать
1 | 0
National Geographic [ 1.18 GB ] National Geographic: Тайна гималайских мумий / Mystery of the Himalayan Mummies [2016 документальный DVB] VO Armstrong Скачать
1 | 0
Фильмы [HD 720p, 1080p] (Хороший звук DUB, MVO) [ 5.96 GB ] Мумия возвращается / The Mummy Returns [2001 HDDVDRip 1080p HEVC ] Мичман37 Скачать
1 | 0

28-11-2019 20:33  

Отключить всю рекламу на сайте

    Дорогой пользователь! Огромная просьба, поблагодарите релизера, оцените раздачу и оставьте свои комментарий, если Вы скачали Мумия через торрент бесплатно! Внесите свою лепту в развитие PiratBit!
    Комментировать посты могут только пользователи прошедшие не сложную регистрацию
    Показать сообщения:    

    Мумия через торрент
    Скачать бесплатно Мумия
    Мумия скачать торрент
    Мумия смотреть онлайн
    Cкачать фильм Мумия бесплатно
    Мумия скачать торрент в хорошем качестве
    Мумия смотреть онлайн бесплатно в хорошем качестве


    Вы не можете начинать темы
    Вы не можете отвечать на сообщения
    Вы не можете редактировать свои сообщения
    Вы не можете удалять свои сообщения
    Вы не можете голосовать в опросах
    Вы не можете прикреплять файлы к сообщениям
    Вы можете скачивать файлы