новый адрес
Мега распродажа FORZA HORIZON 4 ULTIMATE+ВСЕ DLC+ОНЛАЙН всего за 499р. 349 руб. (супер цена). Внимание количество ограничено!!!

iTunes

1+1

iTunes

мы

iTunes

1

iTunes

Чернобыль

iTunes

Ральф против интернета

Лицензия

ПШазам

Лицензия

Игра престолов

Лицензия

30
pack

ВАЖНО

!!Акция!!

Alien_RageХит недели

RePack

Resident Evil 21

ИГРА 18+

pack

RePack

Metro:Exodus

!!Акция!!

Alien_Rage

RePack

fifa19

RePack

Assassins Creed: Odyssey

RePack

NEED FOR SPEED™ PAYBACK

3 сезон

9 сезон

Бесстыжие 9 сезон

Все сериалы

все сериалы на PB.wtf

RePack

FAR CRY 5
Ребята, катастрофически не хватает 1900р. для оплаты серверов за Октябрь (всвязи с блокировками трафик упал в 3 раза), 1-2р., выручайте.
  

Пять дней - пять ночей (Лев Арнштам) [1960, СССР, Германия (ГДР), военный, драма, SATRip от AVP Studio] pb.wtf

Пять дней - пять ночей через торрент pb.wtf

Размер: 1.46 GB | Добавлен: 1 год 6 мес. назад | Торрент скачан:20 раз
Скачать  

26-04-2018 10:10 Пять дней - пять ночей Скачать торрент  

Пять дней - пять ночей
Страна: СССР, Германия (ГДР)
Производство: Мосфильм, DEFA

Жанр: драма, военный
Год выпуска: 1960
Продолжительность: 01:39:57

Перевод: Не требуется
Cубтитры: нет
Оригинальная аудиодорожка: русский

Режиссер: Лев Арнштам

В ролях:
Всеволод Сафонов, Хайнц-Дитер Кнауп, Всеволод Санаев, Аннекатрин Бюргер, Евгения Козырева, Марга Легаль, Михаил Майоров, Вильгельм Кох-Хоге, Николай Сергеев, Николай Сморчков, Геннадий Юхтин, Николай Погодин, Пётр Любешкин, Владимир Пицек, Эрих Франц, Олег Голубицкий, Йохен Блей, Андрей Демьянов...
Об актёрах подробней

Описание:
Май 1945 года. Прошло три месяца после массированного налета английской и американской авиации на Дрезден. Город почти полностью разрушен, а на месте Дрезденской картинной галереи только обугленные остовы стен. Но где же картины? Это предстояло выяснить бойцам капитана Леонова (Всеволод Сафонов) как можно скорее, потому что промедление могло принести невосполнимые утраты.

Исходник: DVB
Качество видео: SATRip
Формат видео: AVI

Видео: 704x528 (4:3), 25,000 кадров/сек, XviD ~ 1890 kbps avg, 0.203 bit/pixel
Аудио: 48 kHz, Dolby Digital AC3 2.0, 192 kbps

Раздача от:
Общее
Полное имя : Pyat.dney-pyat.nochey.1960.SATRip_[New-team]_by_AVP_Studio.avi
Формат : AVI
Формат/Информация : Audio Video Interleave
Размер файла : 1,46 Гбайт
Продолжительность : 1 ч. 39 м.
Общий поток : 2091 Кбит/сек
Программа кодирования : VirtualDubMod 1.5.10.3 | www.virtualdub-fr.org || (build 2550/release)
Библиотека кодирования : VirtualDubMod build 2550/release

Видео
Идентификатор : 0
Формат : MPEG-4 Visual
Профиль формата : Advanced Simple@L5
Настройки формата : BVOP1 / Custom Matrix
Параметр BVOP формата : 1
Параметр QPel формата : Нет
Параметр GMC формата : Без точки перехода
Параметр матрицы формата : Выборочная
Идентификатор кодека : XVID
Идентификатор кодека/Подсказка : XviD
Продолжительность : 1 ч. 39 м.
Битрейт : 1890 Кбит/сек
Ширина : 704 пикселя
Высота : 528 пикселей
Соотношение сторон : 4:3
Частота кадров : 25,000 кадров/сек
Цветовое пространство : YUV
Субдискретизация насыщенности : 4:2:0
Битовая глубина : 8 бит
Тип развёртки : Прогрессивная
Метод сжатия : С потерями
Бит/(Пиксели*Кадры) : 0.203
Размер потока : 1,32 Гбайт (90%)
Библиотека кодирования : XviD 73

Аудио
Идентификатор : 1
Формат : AC-3
Формат/Информация : Audio Coding 3
Идентификатор кодека : 2000
Продолжительность : 1 ч. 39 м.
Вид битрейта : Постоянный
Битрейт : 192 Кбит/сек
Каналы : 2 канала
Расположение каналов : Front: L R
Частота : 48,0 КГц
Частота кадров : 31,250 кадров/сек (1536 SPF)
Битовая глубина : 16 бит
Метод сжатия : С потерями
Размер потока : 137 Мбайт (9%)
Выравнивание : Разделение по промежуткам
Продолжительность промежутка : 40 мс. (1,00 видеокадр)
Время предзагрузки промежутка : 500 мс
pb.wtf



Скачать Пять дней - пять ночей через торрент http://i4.imageban.ru/out/2018/04/26/e3c4e5ea54e96ce1334d50e5ac471cb3.png Скачать фильм Пять дней - пять ночей через торрент бесплантно в хорошем качестве Описание:Май 1945 года. Прошло три месяца после массированного налета английской и американской авиации на Дрезден. Город почти полностью ... 10 10 2
Info! Золотая раздача, скачанное не засчитывается.
Торрент: Зарегистрирован [2018-04-26 10:10] · скачан: 20 раз
Статус: √ проверено
Размер: 1.46 GB
Как cкачать? Как скачать Пять дней - пять ночей через торрент | qTorrent

% Раздел Тема Автор DL S | L
Кино СССР [ 1.46 GB ] Пять дней - пять ночей [1960 СССР Германия военный SATRip-AVC от AVP Studio] AVP Studio Скачать
1 | 0
Кино СССР [ 746 MB ] Пять дней - пять ночей [1960 СССР Германия военный SATRip от AVP Studio] AVP Studio Скачать
1 | 0


>> Регистрируемся здесь <<






Отзывы и комментарии о схеме читаем и пишем здесь: ---> Отзывы и комментарии о схеме

Новые благодарочки в телеграм довольных пользователей:
скриншот   скриншот   скриншот   скриншот   скриншот
    Дорогой пользователь! Огромная просьба, поблагодарите релизера, оцените раздачу и оставьте свои комментарий, если Вы скачали Пять дней - пять ночей через торрент бесплатно! Внесите свою лепту в развитие PiratBit!
    Комментировать посты могут только пользователи прошедшие не сложную регистрацию
    Показать сообщения:    

    Пять дней - пять ночей через торрент
    Скачать бесплатно Пять дней - пять ночей
    Пять дней - пять ночей скачать торрент
    Пять дней - пять ночей смотреть онлайн
    Cкачать фильм Пять дней - пять ночей бесплатно
    Пять дней - пять ночей скачать торрент в хорошем качестве
    Пять дней - пять ночей смотреть онлайн бесплатно в хорошем качестве


    Вы не можете начинать темы
    Вы не можете отвечать на сообщения
    Вы не можете редактировать свои сообщения
    Вы не можете удалять свои сообщения
    Вы не можете голосовать в опросах
    Вы не можете прикреплять файлы к сообщениям
    Вы можете скачивать файлы