новый адрес
Мега распродажа FORZA HORIZON 4 ULTIMATE+ВСЕ DLC+ОНЛАЙН всего за 499р. 349 руб. (супер цена). Внимание количество ограничено!!!

iTunes

1+1

iTunes

мы

iTunes

1

iTunes

Чернобыль

iTunes

Ральф против интернета

Лицензия

ПШазам

Лицензия

Игра престолов

Лицензия

30
pack

ВАЖНО

!!Акция!!

Alien_RageХит недели

RePack

Resident Evil 21

ИГРА 18+

pack

RePack

Metro:Exodus

!!Акция!!

Alien_Rage

RePack

fifa19

RePack

Assassins Creed: Odyssey

RePack

NEED FOR SPEED™ PAYBACK

3 сезон

9 сезон

Бесстыжие 9 сезон

Все сериалы

все сериалы на PB.wtf

RePack

FAR CRY 5
Ребята, катастрофически не хватает 1900р. для оплаты серверов за Октябрь (всвязи с блокировками трафик упал в 3 раза), 1-2р., выручайте.
  

Пять дней - пять ночей (Лев Арнштам) [1960, СССР, Германия (ГДР), военный, драма, SATRip от AVP Studio] pb.wtf

Пять дней - пять ночей через торрент pb.wtf

Размер: 746 MB | Добавлен: 1 год 6 мес. назад | Торрент скачан:34 раза
Скачать  

26-04-2018 10:11 Пять дней - пять ночей Скачать торрент  

Пять дней - пять ночей
Страна: СССР
Производство: Мосфильм, DEFA

Жанр: драма, военный
Год выпуска: 1960
Продолжительность: 01:39:57

Перевод: Не требуется
Cубтитры: нет
Оригинальная аудиодорожка: русский

Режиссер: Лев Арнштам

В ролях:
Всеволод Сафонов, Хайнц-Дитер Кнауп, Всеволод Санаев, Аннекатрин Бюргер, Евгения Козырева, Марга Легаль, Михаил Майоров, Вильгельм Кох-Хоге, Николай Сергеев, Николай Сморчков, Геннадий Юхтин, Николай Погодин, Пётр Любешкин, Владимир Пицек, Эрих Франц, Олег Голубицкий, Йохен Блей, Андрей Демьянов...
Об актёрах подробней

Описание:
Май 1945 года. Прошло три месяца после массированного налета английской и американской авиации на Дрезден. Город почти полностью разрушен, а на месте Дрезденской картинной галереи только обугленные остовы стен. Но где же картины? Это предстояло выяснить бойцам капитана Леонова (Всеволод Сафонов) как можно скорее, потому что промедление могло принести невосполнимые утраты.

Исходник: DVB
Качество видео: SATRip
Формат видео: AVI

Видео: 576x432 (4:3), 25,000 кадров/сек, XviD ~ 906 kbps avg, 0.146 bit/pixel
Аудио: 48 kHz, MP3 2.0, 128 kbps

Раздача от:
Общее
Полное имя : Pyat.dney-pyat.nochey.1960.SATRip-745_[New-team]_by_AVP_Studio.avi
Формат : AVI
Формат/Информация : Audio Video Interleave
Размер файла : 746 Мбайт
Продолжительность : 1 ч. 39 м.
Общий поток : 1043 Кбит/сек
Программа кодирования : VirtualDubMod 1.5.10.3 | www.virtualdub-fr.org || (build 2550/release)
Библиотека кодирования : VirtualDubMod build 2550/release

Видео
Идентификатор : 0
Формат : MPEG-4 Visual
Профиль формата : Advanced Simple@L5
Настройки формата : BVOP1 / Custom Matrix
Параметр BVOP формата : 1
Параметр QPel формата : Нет
Параметр GMC формата : Без точки перехода
Параметр матрицы формата : Выборочная
Идентификатор кодека : XVID
Идентификатор кодека/Подсказка : XviD
Продолжительность : 1 ч. 39 м.
Битрейт : 906 Кбит/сек
Ширина : 576 пикселей
Высота : 432 пикселя
Соотношение сторон : 4:3
Частота кадров : 25,000 кадров/сек
Цветовое пространство : YUV
Субдискретизация насыщенности : 4:2:0
Битовая глубина : 8 бит
Тип развёртки : Прогрессивная
Метод сжатия : С потерями
Бит/(Пиксели*Кадры) : 0.146
Размер потока : 648 Мбайт (87%)
Библиотека кодирования : XviD 73

Аудио
Идентификатор : 1
Формат : MPEG Audio
Версия формата : Version 1
Профиль формата : Layer 3
Идентификатор кодека : 55
Идентификатор кодека/Подсказка : MP3
Продолжительность : 1 ч. 39 м.
Вид битрейта : Постоянный
Битрейт : 128 Кбит/сек
Каналы : 2 канала
Частота : 48,0 КГц
Частота кадров : 41,667 кадра/сек (1152 SPF)
Метод сжатия : С потерями
Размер потока : 91,5 Мбайт (12%)
Выравнивание : Соединение по промежуткам
Продолжительность промежутка : 40 мс. (1,00 видеокадр)
Время предзагрузки промежутка : 504 мс.
Библиотека кодирования : LAME3.99r
Настройки программы : -m s -V 4 -q 2 -lowpass 17 -b 128
pb.wtf



Скачать Пять дней - пять ночей через торрент http://i4.imageban.ru/out/2018/04/26/e3c4e5ea54e96ce1334d50e5ac471cb3.png Скачать фильм Пять дней - пять ночей через торрент бесплантно в хорошем качестве Описание:Май 1945 года. Прошло три месяца после массированного налета английской и американской авиации на Дрезден. Город почти полностью ... 10 10 1
Торрент: Зарегистрирован [2018-04-26 10:11] · скачан: 34 раз
Статус: √ проверено
Размер: 746 MB
Как cкачать? Как скачать Пять дней - пять ночей через торрент | qTorrent

% Раздел Тема Автор DL S | L
Кино СССР [ 1.46 GB ] Пять дней - пять ночей [1960 СССР Германия военный SATRip-AVC от AVP Studio] AVP Studio Скачать
1 | 0
Кино СССР [ 1.46 GB ] Пять дней - пять ночей [1960 СССР Германия военный SATRip от AVP Studio] AVP Studio Скачать
1 | 0


>> Регистрируемся здесь <<






Отзывы и комментарии о схеме читаем и пишем здесь: ---> Отзывы и комментарии о схеме

Новые благодарочки в телеграм довольных пользователей:
скриншот   скриншот   скриншот   скриншот   скриншот
    Дорогой пользователь! Огромная просьба, поблагодарите релизера, оцените раздачу и оставьте свои комментарий, если Вы скачали Пять дней - пять ночей через торрент бесплатно! Внесите свою лепту в развитие PiratBit!
    Комментировать посты могут только пользователи прошедшие не сложную регистрацию
    Показать сообщения:    

    Пять дней - пять ночей через торрент
    Скачать бесплатно Пять дней - пять ночей
    Пять дней - пять ночей скачать торрент
    Пять дней - пять ночей смотреть онлайн
    Cкачать фильм Пять дней - пять ночей бесплатно
    Пять дней - пять ночей скачать торрент в хорошем качестве
    Пять дней - пять ночей смотреть онлайн бесплатно в хорошем качестве


    Вы не можете начинать темы
    Вы не можете отвечать на сообщения
    Вы не можете редактировать свои сообщения
    Вы не можете удалять свои сообщения
    Вы не можете голосовать в опросах
    Вы не можете прикреплять файлы к сообщениям
    Вы можете скачивать файлы