1 сезон

1 сезон

iTunes

1

КиноПоиск HD

Кинопоиск HD

iTunes

13

1 сезон

RePack

30

Новинка

ВАЖНО

ИГРА 18+

pack

RePack

MK11
pack

Легкие деньги

RePack

jed

RePack

fifa19

RePack

RDR2

RePack

NEED FOR SPEED™ PAYBACK

4 сезон

9 сезон

Бесстыжие 9 сезон

Все сериалы

все сериалы на PB.wtf

RePack

FAR CRY 5
  
Magnet ссылка

Новые муравьи в штанах / Knallharte jungs (Гранц Хенман) [2002 г., Комедия, DVDRip-AVC, Профессиональный (многоголосый)] от ExKinoRay pb.wtf

Новые муравьи в штанах через торрент pb.wtf

Размер: 1.86 GB | Добавлен: 2 года 11 мес. назад | Торрент скачан:59 раз
Скачать  

26-04-2018 18:15 Новые муравьи в штанах Скачать торрент  

Новые муравьи в штанах / Knallharte jungs
Год выпуска: 2002
Страна: Германия
Жанр: Комедия
Продолжительность: 01:23:14
Перевод: Профессиональный (многоголосый)
Субтитры: Русские

Режиссер: Гранц Хенман

Премьера в мире: 14 марта 2002

rating

В ролях: Тобиас Шенке, Аксель Штайн, Диана Амфт, Ребекка Моссельманн, Кармен-Майя Энтони, Петра Цизер, Том Ласс, Ники Кантор, Алекса Соммер, Михаэль Хербиг

Описание: Фло заканчивает школу, и его стремление к противоположному полу все более и более ненасытно. "Лучший друг" буквально не дает ему ни минуты покоя, из-за чего Фло попадает в разные идиотские ситуации. Но хуже всего то, что он до безумия влюбился в Майю, которая упорно продолжает относиться к нему как к человеку-невидимке. С помощью своего приятеля по прозвищу "Красный Бык" Фло разрабатывает гениальный план, который поможет ему добиться любви "девушки его мечты". И этот план не может не сработать!

Качество: DVDRip-AVC
Формат: MKV
Видео кодек: MPEG4
Аудио кодек: AC3
Видео: MPEG-4 AVC, 2300 Кбит/с, 712x572@1012x572, 25 кадров/сек
Аудио#1: Русский (AC3, 6 ch, 448 Кбит/с, 48 КГц)
Аудио#2: Немецкий (AC3, 6 ch, 448 Кбит/с, 48 КГц)
Релиз от:







raw [info]: 712x572p 64:45 @ 25/1 fps (cfr)
x264 [info]: using SAR=64/45
x264 [info]: using cpu capabilities: MMX2 SSE2Fast LZCNT
x264 [info]: profile High, level 4.1
x264 [info]: frame I:945 Avg QP:14.74 size: 55232
x264 [info]: frame P:29385 Avg QP:17.66 size: 23299
x264 [info]: frame B:94532 Avg QP:19.63 size: 7389
x264 [info]: consecutive B-frames: 2.6% 3.8% 12.2% 21.9% 12.9% 44.2% 1.6% 0.5% 0.1% 0.0% 0.1% 0.1% 0.0% 0.0% 0.0% 0.0% 0.2%
-----
Общее
Уникальный идентификатор : 220560366433460955623907986864924710289 (0xA5EE61A521167A27B832D0213FCAD591)
Полное имя : D:\ExKinoRay\Knallharte.jungs.2002.DVDRip-AVC.ExKinoRay.mkv
Формат : Matroska
Версия формата : Version 2
Размер файла : 1,86 Гбайт
Продолжительность : 1 ч. 23 м.
Общий поток : 3196 Кбит/сек
Дата кодирования : UTC 2018-04-26 13:47:31
Программа кодирования : mkvmerge v7.8.0 ('River Man') 32bit built on Apr 3 2015 12:11:22
Библиотека кодирования : libebml v1.3.1 + libmatroska v1.4.2

Видео
Идентификатор : 1
Формат : AVC
Формат/Информация : Advanced Video Codec
Профиль формата : High@L4.1
Параметр CABAC формата : Да
Параметр ReFrames формата : 14 кадров
Идентификатор кодека : V_MPEG4/ISO/AVC
Продолжительность : 1 ч. 23 м.
Битрейт : 2300 Кбит/сек
Ширина : 712 пикселей
Высота : 572 пикселя
Соотношение сторон : 16:9
Соотношение сторон в оригинале : 16:9
Режим частоты кадров : Постоянный
Частота кадров : 25,000 кадров/сек
Цветовое пространство : YUV
Субдискретизация насыщенности : 4:2:0
Битовая глубина : 8 бит
Тип развёртки : Прогрессивная
Бит/(Пиксели*Кадры) : 0.226
Размер потока : 1,30 Гбайт (70%)
Библиотека кодирования : x264 core 148 r2638 7599210
Настройки программы : cabac=1 / ref=14 / deblock=1:-2:-2 / analyse=0x3:0x133 / me=umh / subme=10 / psy=1 / psy_rd=1.05:0.15 / mixed_ref=1 / me_range=32 / chroma_me=1 / trellis=2 / 8x8dct=1 / cqm=0 / deadzone=21,11 / fast_pskip=0 / chroma_qp_offset=-3 / threads=4 / lookahead_threads=1 / sliced_threads=0 / nr=0 / decimate=0 / interlaced=0 / bluray_compat=0 / constrained_intra=0 / bframes=16 / b_pyramid=2 / b_adapt=2 / b_bias=0 / direct=3 / weightb=1 / open_gop=0 / weightp=2 / keyint=250 / keyint_min=25 / scenecut=40 / intra_refresh=0 / rc=2pass / mbtree=0 / bitrate=2300 / ratetol=1.0 / qcomp=0.60 / qpmin=0 / qpmax=69 / qpstep=4 / cplxblur=20.0 / qblur=0.5 / ip_ratio=1.40 / pb_ratio=1.30 / aq=1:1.00
Язык : English
Default : Да
Forced : Нет
Цветовой диапазон : Limited
Основные цвета : BT.601 NTSC
Характеристики трансфера : BT.601
Коэффициенты матрицы : BT.601

Аудио #1
Идентификатор : 2
Формат : AC-3
Формат/Информация : Audio Coding 3
Расширение режима : CM (complete main)
Параметр Endianness формата : Big
Идентификатор кодека : A_AC3
Продолжительность : 1 ч. 23 м.
Вид битрейта : Постоянный
Битрейт : 448 Кбит/сек
Каналы : 6 каналов
Расположение каналов : Front: L C R, Side: L R, LFE
Частота : 48,0 КГц
Частота кадров : 31,250 кадров/сек (1536 spf)
Метод сжатия : С потерями
Размер потока : 267 Мбайт (14%)
Язык : Russian
Default : Да
Forced : Нет

Аудио #2
Идентификатор : 3
Формат : AC-3
Формат/Информация : Audio Coding 3
Расширение режима : CM (complete main)
Параметр Endianness формата : Big
Идентификатор кодека : A_AC3
Продолжительность : 1 ч. 23 м.
Вид битрейта : Постоянный
Битрейт : 448 Кбит/сек
Каналы : 6 каналов
Расположение каналов : Front: L C R, Side: L R, LFE
Частота : 48,0 КГц
Частота кадров : 31,250 кадров/сек (1536 spf)
Метод сжатия : С потерями
Размер потока : 267 Мбайт (14%)
Язык : German
Default : Нет
Forced : Нет

Текст
Идентификатор : 4
Формат : UTF-8
Идентификатор кодека : S_TEXT/UTF8
Идентификатор кодека/Информация : UTF-8 Plain Text
Язык : Russian
Default : Да
Forced : Нет

pb.wtf



Скачать Новые муравьи в штанах через торрент http://c.radikal.ru/c37/1804/79/dac3e7c9b8ce.jpg Скачать фильм Новые муравьи в штанах через торрент бесплантно в хорошем качестве Описание: Фло заканчивает школу, и его стремление к противоположному полу все более и более ненасытно. "Лучший друг" буквально не дает ему ... 10 10 2
Info! Золотая раздача, скачанное не засчитывается.
Торрент: Зарегистрирован [2018-04-26 18:15] · скачан: 59 раз
Статус: √ проверено
Размер: 1.86 GB
Как cкачать? Как скачать Новые муравьи в штанах через торрент | UTorrent

28-11-2019 20:33  

Отключить всю рекламу на сайте

26-04-2018 19:48 Новые муравьи в штанах Скачать торрент  

Топик был перенесен из форума Оформление раздач (Кино, Видео и ТВ) в форум Фильмы 2001-2005


-Lexx-pb.wtf



    Дорогой пользователь! Огромная просьба, поблагодарите релизера, оцените раздачу и оставьте свои комментарий, если Вы скачали Новые муравьи в штанах через торрент бесплатно! Внесите свою лепту в развитие PiratBit!
    Комментировать посты могут только пользователи прошедшие не сложную регистрацию
    Показать сообщения:    

    Новые муравьи в штанах через торрент
    Скачать бесплатно Новые муравьи в штанах
    Новые муравьи в штанах скачать торрент
    Новые муравьи в штанах смотреть онлайн
    Cкачать фильм Новые муравьи в штанах бесплатно
    Новые муравьи в штанах скачать торрент в хорошем качестве
    Новые муравьи в штанах смотреть онлайн бесплатно в хорошем качестве


    Вы не можете начинать темы
    Вы не можете отвечать на сообщения
    Вы не можете редактировать свои сообщения
    Вы не можете удалять свои сообщения
    Вы не можете голосовать в опросах
    Вы не можете прикреплять файлы к сообщениям
    Вы можете скачивать файлы