Ссылка на приватное зеркало нашего сайта всего за 1$. Внимание количество ограничено!!!

2 сезон

iTunes

iTunes

1

iTunes

iTunes

iTunes

WEBRip

iTunes

30
pack

Вам бонус

ВАЖНО

!!Акция!!

Alien_RageХит недели

RePack

Horizon Zero Dawn

ИГРА 18+

pack

RePack

jed

!!Акция!!

Alien_Rage

RePack

fifa19

RePack

Assassins Creed: Odyssey

RePack

NEED FOR SPEED™ PAYBACK

4 сезон

9 сезон

Бесстыжие 9 сезон

Все сериалы

все сериалы на PB.wtf

RePack

FAR CRY 5
  

Фея / Pari (Прозит Рой) [2018, Ужасы, детектив, TS 720p] DUB pb.wtf

Фея через торрент pb.wtf

Размер: 3 GB | Добавлен: 2 года 5 мес. назад | Торрент скачан:62 раза
Скачать  

26-04-2018 18:31 Фея Скачать торрент  

Фея / PariГод выпуска: 2018
Страна: Индия
Жанр: Ужасы, детектив
Продолжительность: 02:06:49
Перевод: Дубляж
Субтитры: отсутствуют

Режиссер: Прозит Рой

rating

В ролях:

Анушка Шарма, Парамбрата Чаттерджи, Раджат Капур, Ритабхари Чакраборти, Дибюенду Бхаттачария, Митху Чакраборти, Аншуман Джха, Сантилал Мукхерджи, Манси Мултани

Описание:

Арнаб возвращается в Калькутту после успешной помолвки. По дороге домой происходит несчастный случай: его машина сбивает старуху, которая умирает, несмотря на все попытки её спасти. После этого в жизни парня начинают происходить странные события: он встречает Рухсану — загадочную девушку, которая живет в одинокой хижине за деревней. Попытка разобраться в происходящем приводит к еще более непонятным последствиям.

Качество: TS 720p
Формат: MKV

Видео: h.264, 2 999 Кбит/с, 1280x528
Аудио#1: Русский (AC3, 2 ch, 384 Кбит/с)
скриншот  скриншот  скриншот  

Общее
Уникальный идентификатор : 230930995997204894389031985590033032673 (0xADBBB128BC30BA0299D92D70E58DA5E1)
Полное имя : D:\Pari 2018.D.TS.72Op.mkv
Формат : Matroska
Версия формата : Version 2
Размер файла : 3,00 Гбайт
Продолжительность : 2 ч. 6 м.
Режим общего битрейта : Переменный
Общий поток : 3385 Кбит/сек
Дата кодирования : UTC 2018-04-26 13:31:19
Программа кодирования : mkvmerge v8.3.0 ('Over the Horizon') 64bit
Библиотека кодирования : libebml v1.3.1 + libmatroska v1.4.2

Видео
Идентификатор : 1
Формат : AVC
Формат/Информация : Advanced Video Codec
Профиль формата : High@L4.1
Параметр CABAC формата : Да
Параметр RefFrames формата : 4 кадра
Идентификатор кодека : V_MPEG4/ISO/AVC
Продолжительность : 2 ч. 6 м.
Вид битрейта : Переменный
Битрейт : 2999 Кбит/сек
Максимальный битрейт : 3300 Кбит/сек
Ширина : 1280 пикселей
Высота : 528 пикселей
Соотношение сторон : 2,40:1
Режим частоты кадров : Постоянный
Частота кадров : 23,976 (24000/1001) кадра/сек
Стандарт вещания : Component
Цветовое пространство : YUV
Субдискретизация насыщенности : 4:2:0
Битовая глубина : 8 бит
Тип развёртки : Прогрессивная
Бит/(Пиксели*Кадры) : 0.181
Размер потока : 2,60 Гбайт (87%)
Default : Да
Forced : Нет
Цветовой диапазон : Limited
Основные цвета : BT.709
Характеристики трансфера : BT.709
Коэффициенты матрицы : BT.709

Аудио
Идентификатор : 2
Формат : AC-3
Формат/Информация : Audio Coding 3
Расширение режима : CM (complete main)
Параметр Endianness формата : Big
Идентификатор кодека : A_AC3
Продолжительность : 2 ч. 6 м.
Вид битрейта : Постоянный
Битрейт : 384 Кбит/сек
Каналы : 2 канала
Расположение каналов : Front: L R
Частота : 48,0 КГц
Частота кадров : 31,250 кадров/сек (1536 spf)
Метод сжатия : С потерями
Размер потока : 348 Мбайт (11%)
Default : Да
Forced : Нет

pb.wtf



Скачать Фея через торрент http://img12.lostpic.net/2018/04/26/83c9aed7b3cd3d1d7f6626e1f81d43c7.jpg Скачать фильм Фея через торрент бесплантно в хорошем качестве Описание: Арнаб возвращается в Калькутту после успешной помолвки. По дороге домой происходит несчастный случай: его машина сбивает старуху, ... 9 10 9
Торрент: Зарегистрирован [2018-04-26 18:31] · скачан: 62 раз
Статус: T временная
Размер: 3 GB
Как cкачать? Как скачать Фея через торрент | qTorrent

% Раздел Тема Автор DL S | L
T Фильмы (мультфильмы) cо спонсором показа (Новинки AVI/MKV) [ 1.36 GB ] Фея / Pari [2018 TS] DUB bober100 Скачать
1 | 0

28-11-2019 20:33  

Отключить всю рекламу на сайте

27-04-2018 02:21 Фея Скачать торрент  

Ооо индийские ужасы! Это что-то интересно)))pb.wtf



27-04-2018 11:30 Фея Скачать торрент  

Что то подобное уже видел. Давно правда...pb.wtf



    Дорогой пользователь! Огромная просьба, поблагодарите релизера, оцените раздачу и оставьте свои комментарий, если Вы скачали Фея через торрент бесплатно! Внесите свою лепту в развитие PiratBit!
    Комментировать посты могут только пользователи прошедшие не сложную регистрацию
    Показать сообщения:    

    Фея через торрент
    Скачать бесплатно Фея
    Фея скачать торрент
    Фея смотреть онлайн
    Cкачать фильм Фея бесплатно
    Фея скачать торрент в хорошем качестве
    Фея смотреть онлайн бесплатно в хорошем качестве


    Вы не можете начинать темы
    Вы не можете отвечать на сообщения
    Вы не можете редактировать свои сообщения
    Вы не можете удалять свои сообщения
    Вы не можете голосовать в опросах
    Вы не можете прикреплять файлы к сообщениям
    Вы можете скачивать файлы