Ссылка на приватное зеркало всего за 1$. Внимание количество ограничено!!!

OK

1+1

iTunes

мы

OK

1

WEB-DLRip

Джокер

Пифагор

Ведьмак / The Witcher сериал

Лицензия

ПШазам

ОК

Оно 2

iTunes

30
pack

Вам бонус

ВАЖНО

!!Акция!!

Alien_RageХит недели

RePack

Resident Evil 21

ИГРА 18+

pack

RePack

jed

RePack

fifa19

RePack

Assassins Creed: Odyssey

RePack

NEED FOR SPEED™ PAYBACK

4 сезон

9 сезон

Бесстыжие 9 сезон

Все сериалы

все сериалы на PB.wtf

RePack

FAR CRY 5
  

Сотня / 100 / The 100 / Сезон: 5 / Серии: 1-13 из 13 (Дин Уайт, Джон Беринг, Милан Чейлов) [2018, Фантастика, WEB-DL 720p] MVO [NewStudio] pb.wtf

Сотня через торрент pb.wtf

Размер: 18.92 GB | Добавлен: 10 мес. назад | Торрент скачан:14 раз
Скачать  

27-04-2018 02:24 Сотня Скачать торрент  

Сотня / 100 / The 100
Информация о фильме:

Название: Сотня / 100
Оригинальное название: The 100
Год выпуска: 2018
Страна: США
Жанр: Фантастика
Продолжительность: ~ 00:44:00
Перевод: Профессиональный многоголосый | NewStudio
Субтитры: | Русские (Softsub SRT) |

Режиссер: Дин Уайт, Джон Беринг, Милан Чейлов

rating


В ролях:

Элиза Тейлор-Коттер, Мари Авгеропулос, Сачин Сахель, Линдси Морган, Женевьев Бюкнер, Ричард Хэрмон, Джарод Джозеф, Челси Рейст, Крис Браунинг, Джош Ссеттуба

Описание:

События в сериале начинают разворачиваться по прошествии девяносто семи лет после того как всю цивилизацию уничтожила страшная атомная война. Высоко в космосе на орбите Земли летает большой космический корабль, именно здесь находятся те, кто выжил после страшной катастрофы. Они единственные кто пережил этот ужасный катаклизм который устроило человечество. Именно с этого последнего пристанища людей на Землю отправляют космический челнок на котором находятся сто малолетних преступников…

Информация о файле:

Качество: WEB-DL 720p
Формат: MKV (H.264)

Видео: ~ 4113 kb/s | 1280x718 | 23,976 fps
Аудио#1 Rus: AC3 | 48.0 KHz | 6 ch | 384 kbps |
Аудио#2 Eng: AC3 | 48.0 KHz | 6 ch | 384 kbps |


скриншот  скриншот  скриншот  скриншот  скриншот  

Общее
Уникальный идентификатор : 103663897812938779052067044994404163746 (0x4DFCF0C4477D2A474C3E1EABAE9DA0A2)
Полное имя : D:\Distributions\The 100\The.100.s05e01.WEBDL.720p.NewStudio.mkv
Формат : Matroska
Версия формата : Version 4 / Version 2
Размер файла : 1,44 Гбайт
Продолжительность : 42 м. 19 с.
Общий поток : 4883 Кбит/сек
Дата кодирования : UTC 2018-07-18 12:56:27
Программа кодирования : mkvmerge v25.0.0 ('Prog Noir') 64-bit
Библиотека кодирования : libebml v1.3.6 + libmatroska v1.4.9

Видео
Идентификатор : 1
Формат : AVC
Формат/Информация : Advanced Video Codec
Профиль формата : High@L3.1
Настройки формата : 2 Ref Frames
Параметр CABAC формата : Нет
Параметр RefFrames формата : 2 кадра
Идентификатор кодека : V_MPEG4/ISO/AVC
Продолжительность : 42 м. 19 с.
Битрейт : 4113 Кбит/сек
Ширина : 1280 пикселей
Высота : 718 пикселей
Соотношение сторон : 16:9
Режим частоты кадров : Постоянный
Частота кадров : 23,976 (23976/1000) кадра/сек
Цветовое пространство : YUV
Субдискретизация насыщенности : 4:2:0
Битовая глубина : 8 бит
Тип развёртки : Прогрессивная
Бит/(Пиксели*Кадры) : 0.187
Размер потока : 1,22 Гбайт (84%)
Язык : English
Default : Да
Forced : Нет
Цветовой диапазон : Limited
Основные цвета : BT.709
Характеристики трансфера : BT.709
Коэффициенты матрицы : BT.709

Аудио #1
Идентификатор : 2
Формат : AC-3
Формат/Информация : Audio Coding 3
Идентификатор кодека : A_AC3
Продолжительность : 42 м. 19 с.
Вид битрейта : Постоянный
Битрейт : 384 Кбит/сек
Каналы : 6 каналов
Расположение каналов : Front: L C R, Side: L R, LFE
Частота : 48,0 КГц
Частота кадров : 31,250 кадров/сек (1536 SPF)
Битовая глубина : 16 бит
Метод сжатия : С потерями
Размер потока : 116 Мбайт (8%)
Язык : Russian
ServiceKind/String : Complete Main
Default : Да
Forced : Да

Аудио #2
Идентификатор : 3
Формат : AC-3
Формат/Информация : Audio Coding 3
Идентификатор кодека : A_AC3
Продолжительность : 42 м. 19 с.
Вид битрейта : Постоянный
Битрейт : 384 Кбит/сек
Каналы : 6 каналов
Расположение каналов : Front: L C R, Side: L R, LFE
Частота : 48,0 КГц
Частота кадров : 31,250 кадров/сек (1536 SPF)
Битовая глубина : 16 бит
Метод сжатия : С потерями
Размер потока : 116 Мбайт (8%)
Язык : English
ServiceKind/String : Complete Main
Default : Нет
Forced : Нет

Текст
Идентификатор : 4
Формат : UTF-8
Идентификатор кодека : S_TEXT/UTF8
Идентификатор кодека/Информация : UTF-8 Plain Text
Продолжительность : 41 м. 12 с.
Битрейт : 57 бит/сек
ElementCount : 381
Размер потока : 17,5 Кбайт (0%)
Default : Да
Forced : Нет

Когда раздача ведётся путём добавления новых серий, при каждом добавлении создётся новый торрент. Чтобы начать докачку новой серии, пользователям необходимо сделать следующее:
(1) остановить скачивание,
(2) удалить старый торрент у себя из клиента (старые серии удалять не надо),
(3) скачать новый торрент и запустить его у себя в клиенте вместо старого, при этом указать клиенту путь в старую папку, куда и должно происходить скачивание новых серий.
Ваш клиент при этом должен произвести хеширование (проверку) старой папки (если не производит сам - помогите ему сделать это), и будет докачивать только те серии, которых у вас ещё нет. Старые серии при этом не удаляются, а продолжают раздаваться!
Eсли вы уже удалили старые серии, то предотвратить повторную закачку старых серий можно, отжав галочку в соответсвующих местах при запуске нового торрента. По возможности, желательно не удалять старые серии как можно дольше, чтобы релизёр не столько продолжал раздавать старые серии, а смог сконцентрироваться на новых.
pb.wtf



Скачать Сотня через торрент http://pic1.kartinco.top/images/11/h7nox.jpg Скачать фильм Сотня через торрент бесплантно в хорошем качестве Описание: События в сериале начинают разворачиваться по прошествии девяносто семи лет после того как всю цивилизацию уничтожила страшная ... 10 10 5
Торрент: Зарегистрирован [2019-03-11 08:24] · скачан: 14 раз
Статус: √ проверено
Размер: 18.92 GB
Как cкачать? Как скачать Сотня через торрент | qTorrent

% Раздел Тема Автор DL S | L
Зарубежные сериалы [ 17.18 GB ] Сотня / 100 / The 100 / Сезон: 5 / Серии: 1-13 из 13 [2018 HDTVRip 720p] DVO [SunshineStudio] bober100 Скачать
1 | 0
Зарубежные сериалы [ 6.67 GB ] Сотня / 100 / The 100 / Сезон: 5 / Серии: 1-13 из 13 [2018 HDTVRip] DVO [SunshineStudio] bober100 Скачать
2 | 0
Зарубежные сериалы [ 6.35 GB ] Сотня / 100 / The 100 / Сезон: 5 / Серии: 1-13 из 13 [2018 WEBRip] MVO [BaibaKo] bober100 Скачать
2 | 0
Зарубежные сериалы [ 14.23 GB ] Сотня / 100 / The 100 / Сезон: 5 / Серии: 1-13 из 13 [2018 WEB-DL 720p] MVO [AlexFilm] bober100 Скачать
1 | 0
Зарубежные сериалы [ 12.22 GB ] Сотня / 100 / The 100 / Сезон: 5 / Серии: 1-13 из 13 [2018 WEB-DLRip] 2x[MVO] killermax2013 Скачать
1 | 0
Зарубежные сериалы [ 20.78 GB ] Сотня / 100 / The 100 / Сезон: 5 / Серии: 1-13 из 13 [2018 WEB-DL 720p] MVO [BaibaKo] bober100 Скачать
1 | 0
Зарубежные сериалы [ 24.8 GB ] Сотня / 100 / The 100 / Сезон: 5 / Серии: 1-13 из 13 [2018 WEBRip 1080p] MVO [BaibaKo] bober100 Скачать
1 | 0


Последний раз редактировалось: bober100 (2018-04-27 03:15), всего редактировалось 3 раз(а)

28-11-2019 20:33  

Отключить всю рекламу на сайте

    Дорогой пользователь! Огромная просьба, поблагодарите релизера, оцените раздачу и оставьте свои комментарий, если Вы скачали Сотня через торрент бесплатно! Внесите свою лепту в развитие PiratBit!
    Комментировать посты могут только пользователи прошедшие не сложную регистрацию
    Показать сообщения:    

    Сотня через торрент
    Скачать бесплатно Сотня
    Сотня скачать торрент
    Сотня смотреть онлайн
    Cкачать фильм Сотня бесплатно
    Сотня скачать торрент в хорошем качестве
    Сотня смотреть онлайн бесплатно в хорошем качестве


    Вы не можете начинать темы
    Вы не можете отвечать на сообщения
    Вы не можете редактировать свои сообщения
    Вы не можете удалять свои сообщения
    Вы не можете голосовать в опросах
    Вы не можете прикреплять файлы к сообщениям
    Вы можете скачивать файлы