Лицензия

MVO

1

1 сезон

Лицензия

Лицензия

13

MVO

1 сезон

Ultimate

pack

Рекомендуем

30

Repack

ВАЖНО

ВАЖНО

Ghostwire

RePack

jed

RePack

fifa19

RePack

RDR2

RePack

NEED FOR SPEED™ PAYBACK

RePack

Кинопоиск HD

 Острые козырьки 6 сезон

6 сезон

FAR CRY 6

RePack

Лицензия

MVO

1

1 сезон

1 сезон

Лицензия

  

Баария / Baarìa (Джузеппе Торнаторе) [2009, драма, комедия, BDRip 720p by msltel] MVO

Баария через торрент pb.wtf

Размер: 5.67 GB | Добавлен: 4 года 5 мес. назад | Торрент скачан:38 раз
Смотреть онлайн Баария | Скачать   

27-04-2018 05:34 Баария Скачать торрент  

Название: Баария
Оригинальное название: Baarìa
Год выпуска: 2009
Страна: Италия, Франция
Жанр: драма, комедия
Продолжительность: 02:30:49
Перевод: профессиональный многоголосый

Режиссер: Джузеппе Торнаторе
В ролях: Франческо Шианна, Маргарет Мадэ, Рауль Бова, Джорджо Фалетти, Лео Гуллотта, Николь Гримаудо, Габриэле Лавиа, Анхела Молина, Энрико Ло Версо, Нино Фрассика

О фильме: Эпический фильм, рассказывающий о жизни трёх поколений одной сицилийской семьи в городке Багерия. Багерия, название которого на сицилийском диалекте звучит как «Баария», — родной город режиссёра и сценариста Джузеппе Торнаторе.



Качество: BDRip 720p
Формат: MKV
Видео: MPEG-4 AVC, 4547 Кбит/с, 1280x544, 23.976 кадр/с
Аудио 1: русский, AC3, 384 kbps, 6 ch, 48 kHz [закадровый многоголосый, R5]
Аудио 2: итальянский, AC3, 448 kbps, 6 ch, 48 kHz [оригинал]
Главы/чаптеры
Общее
Уникальный идентификатор : 230391002917326683275750502518836286400 (0xAD53B171DBB4AC03A5425536D991D3C0)
Полное имя : D:\Video\Баария.2009.BDRip.720p by msltel.mkv
Формат : Matroska
Версия формата : Version 4 / Version 2
Размер файла : 5,67 Гбайт
Продолжительность : 2 ч. 30 м.
Общий поток : 5381 Кбит/сек
Название фильма : Rip by msltel
Дата кодирования : UTC 2018-04-27 01:13:24
Программа кодирования : mkvmerge v8.2.0 ('World of Adventure') 64bit
Библиотека кодирования : libebml v1.3.1 + libmatroska v1.4.2

Видео
Идентификатор : 1
Формат : AVC
Формат/Информация : Advanced Video Codec
Профиль формата : [email protected]
Настройки формата : CABAC / 9 Ref Frames
Параметр CABAC формата : Да
Параметр RefFrames формата : 9 кадров
Идентификатор кодека : V_MPEG4/ISO/AVC
Продолжительность : 2 ч. 30 м.
Битрейт : 4547 Кбит/сек
Ширина : 1280 пикселей
Высота : 544 пикселя
Соотношение сторон : 2,35:1
Режим частоты кадров : Постоянный
Частота кадров : 23,976 (24000/1001) кадра/сек
Цветовое пространство : YUV
Субдискретизация насыщенности : 4:2:0
Битовая глубина : 8 бит
Тип развёртки : Прогрессивная
Бит/(Пиксели*Кадры) : 0.272
Размер потока : 4,79 Гбайт (84%)
Библиотека кодирования : x264 core 146 r2538 121396c
Настройки программы : cabac=1 / ref=9 / deblock=1:-3:-2 / analyse=0x3:0x113 / me=umh / subme=11 / psy=1 / psy_rd=1.00:0.15 / mixed_ref=1 / me_range=32 / chroma_me=1 / trellis=2 / 8x8dct=1 / cqm=0 / deadzone=21,11 / fast_pskip=0 / chroma_qp_offset=-3 / threads=6 / lookahead_threads=1 / sliced_threads=0 / nr=0 / decimate=1 / interlaced=0 / bluray_compat=0 / constrained_intra=0 / bframes=7 / b_pyramid=2 / b_adapt=2 / b_bias=0 / direct=1 / weightb=1 / open_gop=0 / weightp=2 / keyint=230 / keyint_min=23 / scenecut=40 / intra_refresh=0 / rc_lookahead=40 / rc=crf / mbtree=0 / crf=20.0 / qcomp=0.60 / qpmin=0 / qpmax=69 / qpstep=4 / vbv_maxrate=62500 / vbv_bufsize=78125 / crf_max=0.0 / nal_hrd=none / filler=0 / ip_ratio=1.40 / pb_ratio=1.30 / aq=1:1.00
Язык : Italian
Default : Да
Forced : Нет

Аудио #1
Идентификатор : 2
Формат : AC-3
Формат/Информация : Audio Coding 3
Идентификатор кодека : A_AC3
Продолжительность : 2 ч. 30 м.
Вид битрейта : Постоянный
Битрейт : 384 Кбит/сек
Каналы : 6 каналов
Расположение каналов : Front: L C R, Side: L R, LFE
Частота : 48,0 КГц
Частота кадров : 31,250 кадров/сек (1536 SPF)
Битовая глубина : 16 бит
Метод сжатия : С потерями
Размер потока : 414 Мбайт (7%)
Заголовок : MVO R5
Язык : Russian
ServiceKind/String : Complete Main
Default : Да
Forced : Нет

Аудио #2
Идентификатор : 3
Формат : AC-3
Формат/Информация : Audio Coding 3
Идентификатор кодека : A_AC3
Продолжительность : 2 ч. 30 м.
Вид битрейта : Постоянный
Битрейт : 448 Кбит/сек
Каналы : 6 каналов
Расположение каналов : Front: L C R, Side: L R, LFE
Частота : 48,0 КГц
Частота кадров : 31,250 кадров/сек (1536 SPF)
Битовая глубина : 16 бит
Метод сжатия : С потерями
Размер потока : 483 Мбайт (8%)
Заголовок : original
Язык : Italian
ServiceKind/String : Complete Main
Default : Нет
Forced : Нет

Меню
00:00:00.000 : :Chapter 01
00:06:41.989 : :Chapter 02
00:12:40.931 : :Chapter 03
00:18:27.277 : :Chapter 04
00:23:22.114 : :Chapter 05
00:35:34.303 : :Chapter 06
00:42:10.616 : :Chapter 07
00:48:18.775 : :Chapter 08
01:00:32.133 : :Chapter 09
01:13:53.015 : :Chapter 10
01:19:35.942 : :Chapter 11
01:25:15.198 : :Chapter 12
01:36:54.063 : :Chapter 13
01:51:44.867 : :Chapter 14
01:56:14.887 : :Chapter 15
02:06:30.587 : :Chapter 16
02:17:02.385 : :Chapter 17
02:23:12.171 : :Chapter 18
02:30:48.835 : :Chapter 19



Скачать Баария через торрент https://c.radikal.ru/c04/1804/da/3712272aa0a0.jpg Скачать, смотреть онлайн Баария бесплантно в хорошем качестве О фильме: Эпический фильм, рассказывающий о жизни трёх поколений одной сицилийской семьи в городке Багерия. Багерия, название которого на ... 10 10 3
Info! Золотая раздача, скачанное не засчитывается.
Торрент: Зарегистрирован [2018-04-27 05:34] · скачан: 38 раз
Статус: √ проверено
Размер: 5.67 GB
Как cкачать? Как скачать Баария через торрент | UTorrent

% Раздел Тема Автор DL S | L
Фильмы 2009 [ 2.06 GB ] Баария / Baarìa / Baaria | MVO + Оригинал | BDRip, MVO + Оригинал bogyn Скачать
1 | 0
Фильмы [HD 720p, 1080p] (Хороший звук DUB, MVO) [ 14.87 GB ] Баария / Baarìa | MVO | 1080p by msltel msltel Скачать
1 | 0

28-11-2019 20:33  

Отключить вcю реклaмy на сайте

    Дорогой пользователь! Огромная просьба, поблагодарите релизера, оцените раздачу и оставьте свои комментарий, если Вы скачали Баария через торрент бесплатно!!
    Комментировать посты могут только пользователи прошедшие не сложную регистрацию
    Показать сообщения:    


    Баария через торрент
    Скачать бесплатно Баария
    Баария скачать торрент
    Баария смотреть онлайн
    Cкачать фильм Баария бесплатно
    Баария скачать торрент в хорошем качестве
    Баария смотреть онлайн бесплатно в хорошем качестве
    Вы не можете начинать темы
    Вы не можете отвечать на сообщения
    Вы не можете редактировать свои сообщения
    Вы не можете удалять свои сообщения
    Вы не можете голосовать в опросах
    Вы не можете прикреплять файлы к сообщениям
    Вы можете скачивать файлы