новый адрес
Мега распродажа FORZA HORIZON 4 ULTIMATE+ВСЕ DLC+ОНЛАЙН всего за 499р. 349 руб. (супер цена). Внимание количество ограничено!!!

iTunes

1+1

iTunes

мы

iTunes

1

iTunes

Чернобыль

iTunes

Ральф против интернета

Лицензия

ПШазам

Лицензия

Оно 2

Лицензия

30
pack

ВАЖНО

!!Акция!!

Alien_RageХит недели

RePack

Resident Evil 21

ИГРА 18+

pack

RePack

Metro:Exodus

!!Акция!!

Alien_Rage

RePack

fifa19

RePack

Assassins Creed: Odyssey

RePack

NEED FOR SPEED™ PAYBACK

3 сезон

9 сезон

Бесстыжие 9 сезон

Все сериалы

все сериалы на PB.wtf

RePack

FAR CRY 5
Ребята, катастрофически не хватает 1900р. для оплаты серверов за Октябрь (всвязи с блокировками трафик упал в 3 раза), 1-2р., выручайте.
  

Ребята с Канонерского (Михаил Шапиро) [1960, СССР, приключения, семейный, SATRip от AVP Studio] pb.wtf

Ребята с Канонерского через торрент pb.wtf

Размер: 745 MB | Добавлен: 1 год 6 мес. назад | Торрент скачан:15 раз
Скачать  

27-04-2018 09:08 Ребята с Канонерского Скачать торрент  

Ребята с Канонерского
Страна: СССР
Производство: Ленфильм

Жанр: приключения, семейный
Год выпуска: 1960
Продолжительность: 01:12:33

Перевод: Не требуется
Cубтитры: нет
Оригинальная аудиодорожка: русский

Режиссер: Михаил Шапиро

В ролях:
Валя Ефимов, Саша Арцимович, Владимир Особик, Юра Мелентьев, Люся Барсукова, Галя Гулина, Вера Поветкина, Лев Борисов, Валентина Хмара, Лилия Гриценко, Владимир Самойлов, Алексей Барндык...
Об актёрах подробней

Описание:
Два друга, Валя и Слава, находят на дне Невы затонувшее судно. Вначале они собирались сами обследовать корабль, но потом у ребят появились другие планы. Они решают организовать у себя на Канонерском острове "пионерский экипаж", членами которого станут мальчишки и девчонки со всего двора. С целины приходит письмо от Михаила, старшего друга пионеров. Парень жалуется на нехватку тракторов. Тогда "экипаж" решает собрать такое количество металлического лома, чтобы его хватило на постройку трактора. Но сколько ни собирают ребята, металла всё равно мало. Тут Валя и Слава вспомнили о затонувшей барже. Взрослые моряки подняли судно со дна и отправили в переплавку. Новый трактор отправляется на целинные земли...

Исходник: DVB
Качество видео: SATRip
Формат видео: AVI

Видео: 672x496 (4:3), 25,000 кадров/сек, XviD ~ 1234 kbps avg, 0.148 bit/pixel
Аудио: 48 kHz, Dolby Digital AC3 2.0, 192 kbps

Раздача от:
Общее
Полное имя : Rebyata.s.Kanonerskogo.1960.SATRip_[New-team]_by_AVP_Studio.avi
Формат : AVI
Формат/Информация : Audio Video Interleave
Размер файла : 745 Мбайт
Продолжительность : 1 ч. 12 м.
Общий поток : 1436 Кбит/сек
Программа кодирования : VirtualDubMod 1.5.10.3 | www.virtualdub-fr.org || (build 2550/release)
Библиотека кодирования : VirtualDubMod build 2550/release

Видео
Идентификатор : 0
Формат : MPEG-4 Visual
Профиль формата : Advanced Simple@L5
Настройки формата : BVOP1 / Custom Matrix
Параметр BVOP формата : 1
Параметр QPel формата : Нет
Параметр GMC формата : Без точки перехода
Параметр матрицы формата : Выборочная
Идентификатор кодека : XVID
Идентификатор кодека/Подсказка : XviD
Продолжительность : 1 ч. 12 м.
Битрейт : 1234 Кбит/сек
Ширина : 672 пикселя
Высота : 496 пикселей
Соотношение сторон : 4:3
Частота кадров : 25,000 кадров/сек
Цветовое пространство : YUV
Субдискретизация насыщенности : 4:2:0
Битовая глубина : 8 бит
Тип развёртки : Прогрессивная
Метод сжатия : С потерями
Бит/(Пиксели*Кадры) : 0.148
Размер потока : 641 Мбайт (86%)
Библиотека кодирования : XviD 73

Аудио
Идентификатор : 1
Формат : AC-3
Формат/Информация : Audio Coding 3
Идентификатор кодека : 2000
Продолжительность : 1 ч. 12 м.
Вид битрейта : Постоянный
Битрейт : 192 Кбит/сек
Каналы : 2 канала
Расположение каналов : Front: L R
Частота : 48,0 КГц
Частота кадров : 31,250 кадров/сек (1536 SPF)
Битовая глубина : 16 бит
Метод сжатия : С потерями
Размер потока : 99,6 Мбайт (13%)
Выравнивание : Разделение по промежуткам
Продолжительность промежутка : 40 мс. (1,00 видеокадр)
Время предзагрузки промежутка : 500 мс
pb.wtf



Скачать Ребята с Канонерского через торрент http://i1.imageban.ru/out/2018/04/27/489702a828360d2542ea5677b5bad704.png Скачать фильм Ребята с Канонерского через торрент бесплантно в хорошем качестве Описание:Два друга, Валя и Слава, находят на дне Невы затонувшее судно. Вначале они собирались сами обследовать корабль, но потом у ребят ... 5 10 1
Info! Золотая раздача, скачанное не засчитывается.
Торрент: Зарегистрирован [2018-04-27 09:08] · скачан: 15 раз
Статус: √ проверено
Размер: 745 MB
Как cкачать? Как скачать Ребята с Канонерского через торрент | qTorrent

% Раздел Тема Автор DL S | L
Кино СССР [ 1.09 GB ] Ребята с Канонерского [1960 СССР SATRip-AVC от AVP Studio] AVP Studio Скачать
1 | 0


>> Регистрируемся здесь <<






Отзывы и комментарии о схеме читаем и пишем здесь: ---> Отзывы и комментарии о схеме

Новые благодарочки в телеграм довольных пользователей:
скриншот   скриншот   скриншот   скриншот   скриншот
    Дорогой пользователь! Огромная просьба, поблагодарите релизера, оцените раздачу и оставьте свои комментарий, если Вы скачали Ребята с Канонерского через торрент бесплатно! Внесите свою лепту в развитие PiratBit!
    Комментировать посты могут только пользователи прошедшие не сложную регистрацию
    Показать сообщения:    

    Ребята с Канонерского через торрент
    Скачать бесплатно Ребята с Канонерского
    Ребята с Канонерского скачать торрент
    Ребята с Канонерского смотреть онлайн
    Cкачать фильм Ребята с Канонерского бесплатно
    Ребята с Канонерского скачать торрент в хорошем качестве
    Ребята с Канонерского смотреть онлайн бесплатно в хорошем качестве


    Вы не можете начинать темы
    Вы не можете отвечать на сообщения
    Вы не можете редактировать свои сообщения
    Вы не можете удалять свои сообщения
    Вы не можете голосовать в опросах
    Вы не можете прикреплять файлы к сообщениям
    Вы можете скачивать файлы