2 сезон

iTunes

1 сезон

1

iTunes

iTunes

iTunes

1 сезон

RePack

30

ИГРА 18+

pack

ВАЖНО

!!Акция!!

Alien_RageХит недели

RePack

MK11
pack

Забери бонус

RePack

jed

!!Акция!!

Alien_Rage

RePack

fifa19

RePack

Assassins Creed: Odyssey

RePack

NEED FOR SPEED™ PAYBACK

4 сезон

9 сезон

Бесстыжие 9 сезон

Все сериалы

все сериалы на PB.wtf

RePack

FAR CRY 5
  

Портрет второй жены / Серии: 1-2 из 2 (Валерий Рожнов, Анна Куранова) [2018, Детектив, мелодрама, SATRip] pb.wtf

Портрет второй жены через торрент pb.wtf

Размер: 1.37 GB | Добавлен: 2 года 6 мес. назад | Торрент скачан:49 раз
Скачать  

27-04-2018 10:43 Портрет второй жены Скачать торрент  

Портрет второй женыГод выпуска: 2018
Страна: Россия
Жанр: Детектив, мелодрама
Продолжительность: 00:52:00
Субтитры: отсутствуют

Режиссер: Валерий Рожнов, Анна Куранова



В ролях:

Елизавета Арзамасова, Анатолий Белый, Любовь Толкалина, Кирилл Гребенщиков, Галина Польских, Любовь Матюшина, Марианна Шульц, Александр Самойлов, Григорий Анурин, Дарина Фёдорова

Описание:

Лиза Успенская - настоящая тургеневская девушка, каких уже, вроде бы, и не осталось в наше время. Случайная встреча с бизнесменом Юрием Ратниковым кардинально меняет ее жизнь. Ратников влюбляется в девушку, но не может совершить подлость по отношению к жене Юле, с которой прожил больше 20 лет. Возникает даже не любовный треугольник, а квадрат, так как в Лизу влюбляется и Сергей, друг детства Ратникова...

Качество: SATRip
Формат: AVI

Видео: XviD, 1655 Кбит/с, 720x400
Аудио: AC3, 2 ch, 192 Кбит/с
скриншот   скриншот   скриншот   скриншот   скриншот  

Общее
Полное имя : D:\Портрет второй жены.2017.SATRip.by.Nicodem.Files-x\01.Портрет второй жены.2017.SATRip.by.Nicodem.Files-x.avi
Формат : AVI
Формат/Информация : Audio Video Interleave
Размер файла : 699 Мбайт
Продолжительность : 52 м. 23 с.
Общий поток : 1866 Кбит/сек
Программа кодирования : VirtualDubMod 1.5.10.3 | www.virtualdub-fr.org || (build 2550/release)
Библиотека кодирования : VirtualDubMod build 2550/release

Видео
Идентификатор : 0
Формат : MPEG-4 Visual
Профиль формата : Advanced Simple@L5
Параметр BVOP формата : 1
Параметр QPel формата : Да
Параметр GMC формата : Без точки перехода
Параметр матрицы формата : Выборочная
Идентификатор кодека : XVID
Идентификатор кодека/Подсказка : XviD
Продолжительность : 52 м. 23 с.
Битрейт : 1665 Кбит/сек
Ширина : 720 пикселей
Высота : 400 пикселей
Соотношение сторон : 16:9
Частота кадров : 25,000 кадров/сек
Цветовое пространство : YUV
Субдискретизация насыщенности : 4:2:0
Битовая глубина : 8 бит
Тип развёртки : Прогрессивная
Метод сжатия : С потерями
Бит/(Пиксели*Кадры) : 0.231
Размер потока : 624 Мбайт (89%)
Библиотека кодирования : XviD 73

Аудио
Идентификатор : 1
Формат : AC-3
Формат/Информация : Audio Coding 3
Расширение режима : CM (complete main)
Параметр Endianness формата : Big
Идентификатор кодека : 2000
Продолжительность : 52 м. 23 с.
Вид битрейта : Постоянный
Битрейт : 192 Кбит/сек
Каналы : 2 канала
Расположение каналов : Front: L R
Частота : 48,0 КГц
Частота кадров : 31,250 кадров/сек (1536 spf)
Метод сжатия : С потерями
Размер потока : 72,0 Мбайт (10%)
Выравнивание : Разделение по промежуткам
Продолжительность промежутка : 40 мс. (1,00 видеокадр)
Время предзагрузки промежутка : 500 мс.

Когда раздача ведётся путём добавления новых серий, при каждом добавлении создётся новый торрент. Чтобы начать докачку новой серии, пользователям необходимо сделать следующее:
(1) остановить скачивание,
(2) удалить старый торрент у себя из клиента (старые серии удалять не надо),
(3) скачать новый торрент и запустить его у себя в клиенте вместо старого, при этом указать клиенту путь в старую папку, куда и должно происходить скачивание новых серий.
Ваш клиент при этом должен произвести хеширование (проверку) старой папки (если не производит сам - помогите ему сделать это), и будет докачивать только те серии, которых у вас ещё нет. Старые серии при этом не удаляются, а продолжают раздаваться!
Eсли вы уже удалили старые серии, то предотвратить повторную закачку старых серий можно, отжав галочку в соответсвующих местах при запуске нового торрента. По возможности, желательно не удалять старые серии как можно дольше, чтобы релизёр не столько продолжал раздавать старые серии, а смог сконцентрироваться на новых.
pb.wtf



Скачать Портрет второй жены через торрент http://i105.fastpic.ru/big/2018/0427/8d/fa7763f55560118857bf8e4ea88dae8d.jpg Скачать фильм Портрет второй жены через торрент бесплантно в хорошем качестве Описание: Лиза Успенская - настоящая тургеневская девушка, каких уже, вроде бы, и не осталось в наше время. Случайная встреча с бизнесменом ... 9.2 10 5
Торрент: Зарегистрирован [2018-04-27 13:04] · скачан: 49 раз
Статус: √ проверено
Размер: 1.37 GB
Как cкачать? Как скачать Портрет второй жены через торрент | qTorrent

% Раздел Тема Автор DL S | L
Наши сериалы [ 1.27 GB ] Портрет второй жены / Серии: 1-2 из 2 [2018 WEB-DLRip] bober100 Скачать
1 | 0
Наши сериалы [ 1.2 GB ] Портрет второй жены / Серии: 1-2 из 2 [2017 экранизация SATRip-AVC] aleksan55 Скачать
1 | 0

28-11-2019 20:33  

Отключить всю рекламу на сайте

    Дорогой пользователь! Огромная просьба, поблагодарите релизера, оцените раздачу и оставьте свои комментарий, если Вы скачали Портрет второй жены через торрент бесплатно! Внесите свою лепту в развитие PiratBit!
    Комментировать посты могут только пользователи прошедшие не сложную регистрацию
    Показать сообщения:    

    Портрет второй жены через торрент
    Скачать бесплатно Портрет второй жены
    Портрет второй жены скачать торрент
    Портрет второй жены смотреть онлайн
    Cкачать фильм Портрет второй жены бесплатно
    Портрет второй жены скачать торрент в хорошем качестве
    Портрет второй жены смотреть онлайн бесплатно в хорошем качестве


    Вы не можете начинать темы
    Вы не можете отвечать на сообщения
    Вы не можете редактировать свои сообщения
    Вы не можете удалять свои сообщения
    Вы не можете голосовать в опросах
    Вы не можете прикреплять файлы к сообщениям
    Вы можете скачивать файлы