новый адрес
Ссылка на приватное зеркало всего за 1$. Внимание количество ограничено!!!

iTunes

1+1

iTunes

мы

WEB-DL

1

iTunes

Чернобыль

iTunes

Ральф против интернета

Лицензия

ПШазам

Лицензия

Оно 2

Лицензия

30
pack

Вам бонус

ВАЖНО

!!Акция!!

Alien_RageХит недели

RePack

Resident Evil 21

ИГРА 18+

pack

RePack

jed

!!Акция!!

Alien_Rage

RePack

fifa19

RePack

Assassins Creed: Odyssey

RePack

NEED FOR SPEED™ PAYBACK

3 сезон

9 сезон

Бесстыжие 9 сезон

Все сериалы

все сериалы на PB.wtf

RePack

FAR CRY 5
Ребята, катастрофически не хватает 1900р. для оплаты серверов за Октябрь (всвязи с блокировками трафик упал в 3 раза), 1-2р., выручайте.
  

Кролик Питер / Peter Rabbit (Уилл Глак) [2018, мультфильм, фэнтези, комедия, BDRip-AVC] Дублированный [Лицензия] R.G.Generalfilm pb.wtf

Кролик Питер через торрент pb.wtf

Раздают: 2 [ 0 KB/s ]
Размер: 1.89 GB | Добавлен: 1 год 7 мес. назад | Торрент скачан:1030 раз
Скачать  

27-04-2018 13:48 Кролик Питер Скачать торрент  

Кролик Питер / Peter Rabbit
««Лучшее лекарство от весеннего авитаминоза»»


Год выпуска: 2018
Страна: Австралия, США
Жанр: мультфильм, фэнтези, комедия, приключения, семейный

Продолжительность: 01:34:42
Перевод: Дублированный [Лицензия]
Субтитры: русские (Full),
В ролях:
Джеймс Корден, Донал Глисон, Сиа, Колин Муди, Сэм Нил, Марго Робби, Элизабет Дебики, Дэйзи Ридли, Роуз Бирн

Описание:
Фильм о приключениях маленького и непоседливого крольчонка по имени Питер, который хочет пробраться в огород к грозному фермеру и вдоволь полакомиться там фруктами и овощами.
Мировая премьера: 3 февраля 2018

Качество: BDRip-AVC by
Формат: MKV
Видео кодек: AVC
Аудио кодек: AC3
Видео: AVC, 1024x428 (2.40:1), 2400 kbps, 23,976 fps, 0,228 bpp
Аудио: русский / AC3 / 5.1 / 48 kHz / 448 kbps / ||
Навигация по главам: есть
Общее
Уникальный идентификатор : 220647488802938973751924061112702292556 (0xA5FF291C077E601A96104AD593DB524C)
Полное имя : E:\Peter.Rabbit.2018.BDRip-AVC.Rip.by.White Smoke.R.G.Generalfilm.mkv
Формат : Matroska
Размер файла : 1,89 Гбайт
Продолжительность : 1 ч. 34 м.
Общий поток : 2850 Кбит/сек
Название фильма : Peter.Rabbit.2018.BDRip-AVC.Rip.by.White Smoke.R.G.Generalfilm.mkv
Дата кодирования : UTC 2018-05-06 22:29:24
Программа кодирования : mkvmerge v6.8.0 ('Theme for Great Cities') 64bit built on Mar 2 2014 21:34:26
Библиотека кодирования : libebml v1.3.0 + libmatroska v1.4.1

Видео
Идентификатор : 1
Формат : AVC
Формат/Информация : Advanced Video Codec
Профиль формата : High@L4.1
Параметр CABAC формата : Да
Параметр ReFrames формата : 10 кадры
Идентификатор кодека : V_MPEG4/ISO/AVC
Продолжительность : 1 ч. 34 м.
Битрейт : 2400 Кбит/сек
Ширина : 1024 пикс.
Высота : 428 пикс.
Соотношение сторон : 2,35:1
Частота кадров : 23,976 кадр/сек
Цветовое пространство : YUV
Подвыборка цветности : 4:2:0
Битовая глубина : 8 бит
Тип развёртки : Прогрессивная
Бит/(Пиксели*Кадры) : 0.228
Размер потока : 1,55 Гбайт (82%)
Библиотека кодирования : x264 core 148 r2638 7599210
Настройки программы : cabac=1 / ref=10 / deblock=1:-2:-1 / analyse=0x3:0x113 / me=umh / subme=11 / psy=1 / psy_rd=0.00:0.15 / mixed_ref=1 / me_range=32 / chroma_me=1 / trellis=2 / 8x8dct=1 / cqm=0 / deadzone=21,11 / fast_pskip=0 / chroma_qp_offset=-3 / threads=6 / lookahead_threads=1 / sliced_threads=0 / nr=0 / decimate=0 / interlaced=0 / bluray_compat=0 / constrained_intra=0 / bframes=10 / b_pyramid=2 / b_adapt=2 / b_bias=0 / direct=1 / weightb=1 / open_gop=0 / weightp=2 / keyint=240 / keyint_min=23 / scenecut=40 / intra_refresh=0 / rc_lookahead=40 / rc=2pass / mbtree=1 / bitrate=2400 / ratetol=1.0 / qcomp=0.65 / qpmin=0 / qpmax=69 / qpstep=4 / cplxblur=20.0 / qblur=0.5 / vbv_maxrate=50000 / vbv_bufsize=65500 / nal_hrd=none / filler=0 / ip_ratio=1.40 / aq=1:1.00
Язык : English

Аудио
Идентификатор : 2
Формат : AC-3
Формат/Информация : Audio Coding 3
Расширение режима : CM (complete main)
Идентификатор кодека : A_AC3
Продолжительность : 1 ч. 34 м.
Вид битрейта : Постоянный
Битрейт : 448 Кбит/сек
Канал(ы) : 6 канала(ов)
Расположение каналов : Front: L C R, Side: L R, LFE
Частота : 48,0 КГц
Битовая глубина : 16 бит
Метод сжатия : С потерями
Размер потока : 303 Мбайт (16%)

Текст
Идентификатор : 3
Формат : UTF-8
Идентификатор кодека : S_TEXT/UTF8
Идентификатор кодека/Информация : UTF-8 Plain Text
Заголовок : Full
Язык : Russian

Меню
00:00:00.000 : en:00:00:00.000
00:04:04.786 : en:00:04:04.786
00:08:26.297 : en:00:08:26.297
00:15:11.702 : en:00:15:11.702
00:21:00.634 : en:00:21:00.634
00:25:43.584 : en:00:25:43.584
00:30:50.265 : en:00:30:50.265
00:38:00.862 : en:00:38:00.862
00:44:37.341 : en:00:44:37.341
00:50:07.671 : en:00:50:07.671
00:56:21.295 : en:00:56:21.295
01:01:07.581 : en:01:01:07.581
01:07:02.560 : en:01:07:02.560
01:10:30.810 : en:01:10:30.810
01:14:35.137 : en:01:14:35.137
01:21:51.990 : en:01:21:51.990
pb.wtf



Скачать Кролик Питер через торрент http://i104.fastpic.ru/big/2018/0427/41/c4fd72ad942d701cdbbc1e85cbca0b41.jpg Скачать фильм Кролик Питер через торрент бесплантно в хорошем качестве Описание: Фильм о приключениях маленького и непоседливого крольчонка по имени Питер, который хочет пробраться в огород к грозному фермеру и ... 9.9 10 19
Info! Золотая раздача, скачанное не засчитывается.
Торрент: Зарегистрирован [2018-05-06 22:37] · скачан: 1 030 раз
Статус: √ проверено
Размер: 1.89 GB
Как cкачать? Как скачать Кролик Питер через торрент | qTorrent



Последний раз редактировалось: White Smoke (2018-05-07 17:53), всего редактировалось 4 раз(а)

28-11-2019 20:33  

Отключить всю рекламу на сайте

29-04-2018 21:06 Кролик Питер Скачать торрент  

Классный, веселый и добрый кино-мультик. даже не ожидал и был приятно удивлен. советую как для семейного просмотра, так и просто приятно провести вечер. pb.wtf



07-05-2018 09:10 Кролик Питер Скачать торрент  

White Smoke, перезалейте скриншоты.pb.wtf



07-05-2018 17:53 Кролик Питер Скачать торрент  

-Lexx-,
готовоpb.wtf



09-05-2018 14:45 Кролик Питер Скачать торрент  

смотрел вместе с детьми, всем оч понравилось. автору спсpb.wtf



    Дорогой пользователь! Огромная просьба, поблагодарите релизера, оцените раздачу и оставьте свои комментарий, если Вы скачали Кролик Питер через торрент бесплатно! Внесите свою лепту в развитие PiratBit!
    Комментировать посты могут только пользователи прошедшие не сложную регистрацию
    Показать сообщения:    

    Кролик Питер через торрент
    Скачать бесплатно Кролик Питер
    Кролик Питер скачать торрент
    Кролик Питер смотреть онлайн
    Cкачать фильм Кролик Питер бесплатно
    Кролик Питер скачать торрент в хорошем качестве
    Кролик Питер смотреть онлайн бесплатно в хорошем качестве


    Вы не можете начинать темы
    Вы не можете отвечать на сообщения
    Вы не можете редактировать свои сообщения
    Вы не можете удалять свои сообщения
    Вы не можете голосовать в опросах
    Вы не можете прикреплять файлы к сообщениям
    Вы можете скачивать файлы