новый адрес
Ссылка на приватное зеркало всего за 1$. Внимание количество ограничено!!!

iTunes

1+1

iTunes

мы

WEB-DL

1

iTunes

Чернобыль

iTunes

Ральф против интернета

Лицензия

ПШазам

Лицензия

Оно 2

Лицензия

30
pack

Вам бонус

ВАЖНО

!!Акция!!

Alien_RageХит недели

RePack

Resident Evil 21

ИГРА 18+

pack

RePack

jed

!!Акция!!

Alien_Rage

RePack

fifa19

RePack

Assassins Creed: Odyssey

RePack

NEED FOR SPEED™ PAYBACK

3 сезон

9 сезон

Бесстыжие 9 сезон

Все сериалы

все сериалы на PB.wtf

RePack

FAR CRY 5
Ребята, катастрофически не хватает 1900р. для оплаты серверов за Октябрь (всвязи с блокировками трафик упал в 3 раза), 1-2р., выручайте.
  

Ушедшие дни / Gone Are the Days (Марк Ландре Гулд) [2018, вестерн, BDRip-AVC] MVO [HDrezka Studio] - ExKinoRay pb.wtf

Ушедшие дни через торрент pb.wtf

Размер: 1.55 GB | Добавлен: 1 год 7 мес. назад | Торрент скачан:217 раз
Скачать  

28-04-2018 02:37 Ушедшие дни Скачать торрент  

Информация о фильме
Название: Ушедшие дни
Оригинальное название: Gone Are the Days
Год выхода: 2018
Жанр: вестерн
Страна: США
Продолжительность: 01:40:00
Перевод: Профессиональный (многоголосый закадровый) HDrezka Studio
Субтитры: Английские
Режиссер: Марк Ландре Гулд
В ролях: Дэнни Трехо, Том Беренджер, Лэнс Хенриксен, Лулу Уилсон, Стив Рейлсбэк, Мэг Чэмберс Стидл, Крис Романо, Джейми МакШейн, Билли Лаш, Картер Хатингс

Описание: Фильм рассказывает историю пожилого и больного разбойника Тэйлона Флинна. Тэйлон понимает, что жить ему осталось недолго, и перед смертью решает спасти свою дочь, которую он когда-то бросил, от нелегкой судьбы. Чтобы это сделать, ему придётся снова встретиться лицом к лицу со старыми врагами и демонами прошлого.

rating

Файл
Формат: MKV
Качество: BDRip-AVC [источник Gone.Are.the.Days.2018.Remux.1080p]
Видео: MPEG-4 AVC, 1024x426 (2.40:1), 23.976 fps, ~ 1578 kbps avg, 0.150 bit/pixel
Аудио 1: 48 kHz, AC3, 2.0, 192 Kbps | RUS |
Аудио 2: 48 kHz, AC3, 5.1, 448 Kbps | ENG |

Сохранены оригинальные чаптеры как на Blu-Ray.

Без какой-либо рекламы!
General
Unique ID : 252622901598495524723010766884997538028 (0xBE0D66AD5A4EC326BE48DC11B189A0EC)
Complete name : D:\Gone.Are.the.Days.2018.MVO.BDRip.AVC.ExKinoRay.mkv
Format : Matroska
Format version : Version 2
File size : 1.55 GiB
Duration : 1 h 40 min
Overall bit rate : 2 219 kb/s
Movie name : Gone Are the Days 2018 from ExKinoRay
Encoded date : UTC 2018-04-28 02:12:22
Writing application : mkvmerge v5.6.0 ('Kenya Kane') built on May 27 2012 16:44:04
Writing library : libebml v1.2.3 + libmatroska v1.3.0

Video
ID : 1
Format : AVC
Format/Info : Advanced Video Codec
Format profile : High@L4.1
Format settings, CABAC : Yes
Format settings, ReFrames : 12 frames
Codec ID : V_MPEG4/ISO/AVC
Duration : 1 h 40 min
Bit rate : 1 578 kb/s
Width : 1 024 pixels
Height : 428 pixels
Display aspect ratio : 2.40:1
Frame rate mode : Constant
Frame rate : 23.976 (23976/1000) FPS
Color space : YUV
Chroma subsampling : 4:2:0
Bit depth : 8 bits
Scan type : Progressive
Bits/(Pixel*Frame) : 0.150
Stream size : 1.07 GiB (69%)
Title : Enigma
Writing library : x264 core 152 r2851 ba24899
Encoding settings : cabac=1 / ref=12 / deblock=1:-2:-2 / analyse=0x3:0x113 / me=umh / subme=10 / psy=1 / psy_rd=1.03:0.10 / mixed_ref=1 / me_range=32 / chroma_me=1 / trellis=2 / 8x8dct=1 / cqm=0 / deadzone=21,11 / fast_pskip=0 / chroma_qp_offset=-3 / threads=12 / lookahead_threads=3 / sliced_threads=0 / nr=0 / decimate=0 / interlaced=0 / bluray_compat=0 / constrained_intra=0 / bframes=11 / b_pyramid=2 / b_adapt=2 / b_bias=0 / direct=3 / weightb=1 / open_gop=0 / weightp=2 / keyint=240 / keyint_min=23 / scenecut=40 / intra_refresh=0 / rc_lookahead=40 / rc=2pass / mbtree=0 / bitrate=1578 / ratetol=1.0 / qcomp=0.60 / qpmin=0 / qpmax=51 / qpstep=4 / cplxblur=20.0 / qblur=0.5 / vbv_maxrate=50000 / vbv_bufsize=62500 / nal_hrd=none / filler=0 / ip_ratio=1.40 / pb_ratio=1.30 / aq=3:0.90
Language : English
Default : Yes
Forced : No
Color range : Limited
Color primaries : BT.709
Transfer characteristics : BT.709
Matrix coefficients : BT.709

Audio #1
ID : 2
Format : AC-3
Format/Info : Audio Coding 3
Mode extension : CM (complete main)
Format settings, Endianness : Big
Codec ID : A_AC3
Duration : 1 h 40 min
Bit rate mode : Constant
Bit rate : 192 kb/s
Channel(s) : 2 channels
Channel positions : Front: L R
Sampling rate : 48.0 kHz
Frame rate : 31.250 FPS (1536 spf)
Compression mode : Lossy
Stream size : 137 MiB (9%)
Title : MVO (HDrezka Studio)
Language : Russian
Default : Yes
Forced : No

Audio #2
ID : 3
Format : AC-3
Format/Info : Audio Coding 3
Mode extension : CM (complete main)
Format settings, Endianness : Big
Codec ID : A_AC3
Duration : 1 h 40 min
Bit rate mode : Constant
Bit rate : 448 kb/s
Channel(s) : 6 channels
Channel positions : Front: L C R, Side: L R, LFE
Sampling rate : 48.0 kHz
Frame rate : 31.250 FPS (1536 spf)
Compression mode : Lossy
Stream size : 320 MiB (20%)
Language : English
Default : No
Forced : No

Text
ID : 4
Format : UTF-8
Codec ID : S_TEXT/UTF8
Codec ID/Info : UTF-8 Plain Text
Language : English
Default : No
Forced : No

Menu
00:00:00.000 : en:00:00:00.000
00:06:27.345 : en:00:06:27.345
00:11:54.547 : en:00:11:54.547
00:18:57.219 : en:00:18:57.219
00:25:24.481 : en:00:25:24.481
00:31:16.875 : en:00:31:16.875
00:36:45.328 : en:00:36:45.328
00:43:31.692 : en:00:43:31.692
00:49:46.609 : en:00:49:46.609
00:57:06.381 : en:00:57:06.381
01:02:58.733 : en:01:02:58.733
01:07:12.862 : en:01:07:12.862
01:15:57.094 : en:01:15:57.094
01:22:08.173 : en:01:22:08.173
01:28:38.104 : en:01:28:38.104
01:33:03.703 : en:01:33:03.703
Релиз от:

Автор релиза: pb.wtf



Скачать Ушедшие дни через торрент http://img12.lostpic.net/2018/04/25/f30db4da5fbde2a093406a38c3e5b19b.jpg Скачать фильм Ушедшие дни через торрент бесплантно в хорошем качестве Описание: Фильм рассказывает историю пожилого и больного разбойника Тэйлона Флинна. Тэйлон понимает, что жить ему осталось недолго, и перед ... 8.9 10 11
Info! Золотая раздача, скачанное не засчитывается.
Торрент: Зарегистрирован [2018-04-28 02:37] · скачан: 217 раз
Статус: T временная
Размер: 1.55 GB
Как cкачать? Как скачать Ушедшие дни через торрент | qTorrent

28-11-2019 20:33  

Отключить всю рекламу на сайте

08-08-2018 16:51 Ушедшие дни Скачать торрент  

мда... всё задуманное проясняется только в конце фильма, а так... один раз глянуть можно.pb.wtf



    Дорогой пользователь! Огромная просьба, поблагодарите релизера, оцените раздачу и оставьте свои комментарий, если Вы скачали Ушедшие дни через торрент бесплатно! Внесите свою лепту в развитие PiratBit!
    Комментировать посты могут только пользователи прошедшие не сложную регистрацию
    Показать сообщения:    

    Ушедшие дни через торрент
    Скачать бесплатно Ушедшие дни
    Ушедшие дни скачать торрент
    Ушедшие дни смотреть онлайн
    Cкачать фильм Ушедшие дни бесплатно
    Ушедшие дни скачать торрент в хорошем качестве
    Ушедшие дни смотреть онлайн бесплатно в хорошем качестве


    Вы не можете начинать темы
    Вы не можете отвечать на сообщения
    Вы не можете редактировать свои сообщения
    Вы не можете удалять свои сообщения
    Вы не можете голосовать в опросах
    Вы не можете прикреплять файлы к сообщениям
    Вы можете скачивать файлы