Ссылка на приватное зеркало нашего сайта всего за 1$. Внимание количество ограничено!!!

2 сезон

iTunes

1 сезон

1

2 сезон

2 сезон

iTunes

1 сезон

RePack

30

Ultimate

ВАЖНО

ИГРА 18+

pack

RePack

MK11
pack

Забери бонус

RePack

jed

!!Акция!!

Alien_Rage

RePack

fifa19

RePack

Assassins Creed: Odyssey

RePack

NEED FOR SPEED™ PAYBACK

4 сезон

9 сезон

Бесстыжие 9 сезон

Все сериалы

все сериалы на PB.wtf

RePack

FAR CRY 5
  

Подлый Пит / Sneaky Pete / Сезон: 2 / Серии: 1-10 из 10 (Майкл Диннер, Адам Аркин, Лора Иннес) [2018, драма, криминал, WEB-DLRip] MVO [Jaskier] pb.wtf

Подлый Пит через торрент pb.wtf

Размер: 5.91 GB | Добавлен: 2 года 6 мес. назад | Торрент скачан:34 раза
Скачать  

28-04-2018 05:26 Подлый Пит Скачать торрент  

Подлый Пит / Sneaky Pete
Информация о фильме:

Название: Подлый Пит
Оригинальное название: Sneaky Pete
Год выпуска: 2018
Страна: США
Жанр: драма, криминал
Продолжительность: ~00:45:00 серия
Перевод: Профессиональный многоголосый | Jaskier
Субтитры: отсутствуют

Режиссер: Майкл Диннер, Адам Аркин, Лора Иннес

rating

В ролях:

Джованни Рибизи (Marius Josipovic), Марин Айрлэнд (Julia), Шэйн МакРей (Taylor), Либэ Барер (Carly), Питер Герети (Otto Bernhardt), Марго Мартиндейл (Audrey), Джей О. Сэндерс (Sam), Джастин Котсонас (Shannon), Элисон Райт (Marjorie), Джекоб Питтс (Lance Lord), Итэн Эмбри (Pete Murphy), Джозеф Лайл Тейлор (Frank)

Описание:

По сюжету молодой мошенник Пит, отсидев положенный срок, решает завязать с тёмным прошлым, примерив на себя личину бывшего сокамерника. Скрываясь от местной мафии, парень пристраивается в семейный бизнес того самого сокамерника. Со временем он осознает, что такое настоящая семья, и даже обретёт любовь всей своей жизни, но прошлые грехи не позволят ему расслабиться ни на минуту, угрожая уничтожить и главного героя, и его новую жизнь.

Информация о файле:

Качество: WEB-DLRip
Формат: AVI

Видео: ~ 1400 kbps, 720x400, 23.976 fps
Аудио#1 RU: mp3, 48.0 KHz, 2 ch, 128 kbps
Аудио#2 EN: mp3, 48.0 KHz, 2 ch, 128 kbps



Общее
Полное имя : D:\Sneaky Pete. Season 2 (WEB-DLRip l 400p l Jaskier)\Sneaky.Pete.S02E01.WEB-DLRip.Rus.Eng.Jaskier.avi
Формат : AVI
Формат/Информация : Audio Video Interleave
Размер файла : 650 Мбайт
Продолжительность : 53 м. 58 с.
Общий поток : 1685 Кбит/сек
Программа кодирования : VirtualDubMod 1.5.10.3 | www.virtualdub-fr.org || (build 2550/release)
Библиотека кодирования : VirtualDubMod build 2550/release

Видео
Идентификатор : 0
Формат : MPEG-4 Visual
Профиль формата : Advanced Simple@L5
Параметр BVOP формата : 1
Параметр QPel формата : Нет
Параметр GMC формата : Без точки перехода
Параметр матрицы формата : Default (MPEG)
Идентификатор кодека : XVID
Идентификатор кодека/Подсказка : XviD
Продолжительность : 53 м. 58 с.
Битрейт : 1415 Кбит/сек
Ширина : 720 пикселей
Высота : 400 пикселей
Соотношение сторон : 16:9
Частота кадров : 23,976 (23976/1000) кадра/сек
Цветовое пространство : YUV
Субдискретизация насыщенности : 4:2:0
Битовая глубина : 8 бит
Тип развёртки : Прогрессивная
Метод сжатия : С потерями
Бит/(Пиксели*Кадры) : 0.205
Размер потока : 546 Мбайт (84%)
Библиотека кодирования : XviD 73

Аудио #1
Идентификатор : 1
Формат : MPEG Audio
Версия формата : Version 1
Профиль формата : Layer 3
Режим : Joint stereo
Расширение режима : MS Stereo
Идентификатор кодека : 55
Идентификатор кодека/Подсказка : MP3
Продолжительность : 53 м. 58 с.
Вид битрейта : Постоянный
Битрейт : 128 Кбит/сек
Каналы : 2 канала
Частота : 48,0 КГц
Метод сжатия : С потерями
Размер потока : 49,4 Мбайт (8%)
Выравнивание : Соединение по промежуткам
Продолжительность промежутка : 42 мс. (1,00 видеокадр)
Время предзагрузки промежутка : 504 мс.

Аудио #2
Идентификатор : 2
Формат : MPEG Audio
Версия формата : Version 1
Профиль формата : Layer 3
Режим : Joint stereo
Расширение режима : MS Stereo
Идентификатор кодека : 55
Идентификатор кодека/Подсказка : MP3
Продолжительность : 53 м. 58 с.
Вид битрейта : Постоянный
Битрейт : 128 Кбит/сек
Каналы : 2 канала
Частота : 48,0 КГц
Метод сжатия : С потерями
Размер потока : 49,4 Мбайт (8%)
Выравнивание : Соединение по промежуткам
Продолжительность промежутка : 42 мс. (1,00 видеокадр)
Время предзагрузки промежутка : 504 мс.

pb.wtf



Скачать Подлый Пит через торрент http://pic1.kartinco.top/images/11/zy2i6.jpg Скачать фильм Подлый Пит через торрент бесплантно в хорошем качестве Описание: По сюжету молодой мошенник Пит, отсидев положенный срок, решает завязать с тёмным прошлым, примерив на себя личину бывшего ... 10 10 2
Торрент: Зарегистрирован [2018-04-28 05:26] · скачан: 34 раз
Статус: √ проверено
Размер: 5.91 GB
Как cкачать? Как скачать Подлый Пит через торрент | qTorrent

% Раздел Тема Автор DL S | L
Зарубежные сериалы [ 37.26 GB ] Подлый пит / Sneaky Pete / Сезон: 2 / Серии: 1-10 из 10 [2018 WEB-DL 1080p] MVO [TVShows] bober100 Скачать
1 | 0
Зарубежные сериалы [ 13 GB ] Подлый Пит / Sneaky Pete / Сезон: 2 / Серии: 1-10 из 10 [2018 WEB-DL 720p] MVO [Jaskier] bober100 Скачать
1 | 0
Зарубежные сериалы [ 13.37 GB ] Подлый Пит / Sneaky Pete / Сезон: 2 / Серии: 1-10 из 10 [2018 WEBRip 720p] [MVO] killermax2013 Скачать
1 | 0
Зарубежные сериалы [ 15.36 GB ] Подлый Пит / Sneaky Pete / Сезон: 2 / Серии: 1-10 из 10 [2018 WEBRip 720p] [MVO] killermax2013 Скачать
1 | 0
Зарубежные сериалы [ 6.27 GB ] Подлый Пит / Sneaky Pete / Сезон: 2 / Серии: 1-10 из 10 [2018 WEBRip] MVO [LostFilm] bober100 Скачать
1 | 0
Зарубежные сериалы [ 36.71 GB ] Подлый Пит / Sneaky Pete / Сезон: 2 / Серии: 1-10 из 10 [2018 WEBRip] [1080p] [DVO] killermax2013 Скачать
1 | 0

28-11-2019 20:33  

Отключить всю рекламу на сайте

    Дорогой пользователь! Огромная просьба, поблагодарите релизера, оцените раздачу и оставьте свои комментарий, если Вы скачали Подлый Пит через торрент бесплатно! Внесите свою лепту в развитие PiratBit!
    Комментировать посты могут только пользователи прошедшие не сложную регистрацию
    Показать сообщения:    

    Подлый Пит через торрент
    Скачать бесплатно Подлый Пит
    Подлый Пит скачать торрент
    Подлый Пит смотреть онлайн
    Cкачать фильм Подлый Пит бесплатно
    Подлый Пит скачать торрент в хорошем качестве
    Подлый Пит смотреть онлайн бесплатно в хорошем качестве


    Вы не можете начинать темы
    Вы не можете отвечать на сообщения
    Вы не можете редактировать свои сообщения
    Вы не можете удалять свои сообщения
    Вы не можете голосовать в опросах
    Вы не можете прикреплять файлы к сообщениям
    Вы можете скачивать файлы