Ссылка на приватное зеркало нашего сайта всего за 1$. Внимание количество ограничено!!!

2 сезон

iTunes

1 сезон

1

iTunes

iTunes

iTunes

1 сезон

RePack

30

ИГРА 18+

pack

ВАЖНО

!!Акция!!

Alien_RageХит недели

RePack

MK11
pack

Забери бонус

RePack

jed

!!Акция!!

Alien_Rage

RePack

fifa19

RePack

Assassins Creed: Odyssey

RePack

NEED FOR SPEED™ PAYBACK

4 сезон

9 сезон

Бесстыжие 9 сезон

Все сериалы

все сериалы на PB.wtf

RePack

FAR CRY 5
  

Астрал 4: Последний ключ / Insidious: The Last Key (Адам Робител) [2018 г., Ужасы, триллер, детектив, BDRip 1080p, Дубляж Лицензия] pb.wtf

Астрал 4: Последний ключ через торрент pb.wtf

Размер: 10.42 GB | Добавлен: 2 года 5 мес. назад | Торрент скачан:528 раз
Скачать  

28-04-2018 09:48 Астрал 4: Последний ключ Скачать торрент  

Астрал 4: Последний ключ / Insidious: The Last Key
Год выпуска: 2018
Страна: США, Канада
Жанр: Ужасы, триллер, детектив
Продолжительность: 01:43:24
Перевод: Дубляж Лицензия | Blu-ray EUR
Субтитры: Русские, английские

Режиссер: Адам Робител

rating

В ролях: Кирк Асеведо, Спенсер Лок, Джош Стюарт, Лин Шэй, Энгус Сэмпсон, Хавьер Ботет, Брюс Дэвисон, Хана Хэйес, Ли Уоннелл, Кейтлин Джерард

Описание: Новая глава истории об экстрасенсе, которая умеет разговаривать с мертвыми. Детство и Элизы было трудным — жестокий отец считал, что девочка придумывает истории о призраках, поэтому бил её и запирал в подвале. Однажды сидя в темном подвале, Элиза начинает общаться с коварным призраком, который убеждает её открыть дверь. Вырвавшееся наружу зло тут же убивает мать девочки.

Много лет спустя Элиза всё ещё пытается восстановить в памяти события той ужасной ночи, когда получает просьбу о помощи. Мужчину одолели призраки, и живёт он в том самом доме, где прошло детство Элизы.

Качество: BDRip 1080p
Формат: MKV
Видео кодек: H.264
Аудио кодек: AC3
Видео: 1920x804 (2,40:1), 23,976 fps, MPEG-4 AVC ~ 12,3 Мbps avg, 0.332 bit/pixel
Аудио#1: AC3, 48 kHz, 6 ch, ~640.00 kbps avg | русский | Blu-ray EUR
Аудио#2: DTS, 48 kHz, 6 ch, ~1509.00 kbps avg | английский | Оригинал
скриншот   скриншот   скриншот   скриншот  

Общее
Уникальный идентификатор : 204791466201963114813328081384956569160 (0x9A1166D68DCC83679F2EE1B50E952648)
Полное имя : Insidious.the.Last.Key.2018.1080p.BluRay.x264.Rus.Eng.mkv
Формат : Matroska
Версия формата : Version 4 / Version 2
Размер файла : 10,4 Гбайт
Продолжительность : 1 ч. 43 м.
Общий поток : 14,4 Мбит/сек
Дата кодирования : UTC 2018-04-27 20:56:46
Программа кодирования : mkvmerge v9.7.1 ('Pandemonium') 64bit
Библиотека кодирования : libebml v1.3.4 + libmatroska v1.4.5

Видео
Идентификатор : 1
Формат : AVC
Формат/Информация : Advanced Video Codec
Профиль формата : High@L4.1
Настройки формата : CABAC / 5 Ref Frames
Параметр CABAC формата : Да
Параметр ReFrames формата : 5 кадров
Идентификатор кодека : V_MPEG4/ISO/AVC
Продолжительность : 1 ч. 43 м.
Битрейт : 12,3 Мбит/сек
Ширина : 1920 пикселей
Высота : 804 пикселя
Соотношение сторон : 2,40:1
Режим частоты кадров : Постоянный
Частота кадров : 23,976 (24000/1001) кадра/сек
Цветовое пространство : YUV
Субдискретизация насыщенности : 4:2:0
Битовая глубина : 8 бит
Тип развёртки : Прогрессивная
Бит/(Пиксели*Кадры) : 0.332
Размер потока : 8,87 Гбайт (85%)
Библиотека кодирования : x264 core 155 r2901 7d0ff22
Настройки программы : cabac=1 / ref=5 / deblock=1:-3:-3 / analyse=0x3:0x113 / me=umh / subme=10 / psy=1 / psy_rd=1.02:0.00 / mixed_ref=1 / me_range=32 / chroma_me=1 / trellis=2 / 8x8dct=1 / cqm=1 / deadzone=21,11 / fast_pskip=0 / chroma_qp_offset=-1 / threads=12 / lookahead_threads=2 / sliced_threads=0 / nr=0 / decimate=1 / interlaced=0 / bluray_compat=0 / constrained_intra=0 / bframes=8 / b_pyramid=2 / b_adapt=2 / b_bias=0 / direct=3 / weightb=1 / open_gop=0 / weightp=2 / keyint=230 / keyint_min=23 / scenecut=40 / intra_refresh=0 / rc_lookahead=40 / rc=crf / mbtree=0 / crf=13.8 / qcomp=0.61 / qpmin=5 / qpmax=69 / qpstep=4 / vbv_maxrate=62500 / vbv_bufsize=78125 / crf_max=0.0 / nal_hrd=none / filler=0 / ip_ratio=1.30 / pb_ratio=1.20 / aq=1:0.75
Язык : English
Default : Да
Forced : Нет

Аудио #1
Идентификатор : 2
Формат : AC-3
Формат/Информация : Audio Coding 3
Идентификатор кодека : A_AC3
Продолжительность : 1 ч. 43 м.
Вид битрейта : Постоянный
Битрейт : 640 Кбит/сек
Каналы : 6 каналов
Расположение каналов : Front: L C R, Side: L R, LFE
Частота : 48,0 КГц
Частота кадров : 31,250 кадров/сек (1536 SPF)
Битовая глубина : 16 бит
Метод сжатия : С потерями
Размер потока : 473 Мбайт (4%)
Заголовок : Blu-ray EUR
Язык : Russian
Default : Да
Forced : Нет

Аудио #2
Идентификатор : 3
Формат : DTS
Формат/Информация : Digital Theater Systems
Идентификатор кодека : A_DTS
Продолжительность : 1 ч. 43 м.
Вид битрейта : Постоянный
Битрейт : 1509 Кбит/сек
Каналы : 6 каналов
Расположение каналов : Front: L C R, Side: L R, LFE
Частота : 48,0 КГц
Частота кадров : 93,750 кадра/сек (512 SPF)
Битовая глубина : 24 бит
Метод сжатия : С потерями
Размер потока : 1,09 Гбайт (10%)
Язык : English
Default : Нет
Forced : Нет

Текст #1
Идентификатор : 4
Формат : UTF-8
Идентификатор кодека : S_TEXT/UTF8
Идентификатор кодека/Информация : UTF-8 Plain Text
Продолжительность : 1 ч. 35 м.
Битрейт : 0 бит/сек
ElementCount : 12
Размер потока : 526 байт (0%)
Заголовок : Forced
Язык : Russian
Default : Нет
Forced : Нет

Текст #2
Идентификатор : 5
Формат : UTF-8
Идентификатор кодека : S_TEXT/UTF8
Идентификатор кодека/Информация : UTF-8 Plain Text
Продолжительность : 1 ч. 42 м.
Битрейт : 49 бит/сек
ElementCount : 852
Размер потока : 37,0 Кбайт (0%)
Заголовок : iTunes
Язык : Russian
Default : Нет
Forced : Нет

Текст #3
Идентификатор : 6
Формат : UTF-8
Идентификатор кодека : S_TEXT/UTF8
Идентификатор кодека/Информация : UTF-8 Plain Text
Продолжительность : 1 ч. 36 м.
Битрейт : 33 бит/сек
ElementCount : 887
Размер потока : 24,0 Кбайт (0%)
Заголовок : Full
Язык : English
Default : Нет
Forced : Нет

Текст #4
Идентификатор : 7
Формат : UTF-8
Идентификатор кодека : S_TEXT/UTF8
Идентификатор кодека/Информация : UTF-8 Plain Text
Продолжительность : 1 ч. 36 м.
Битрейт : 38 бит/сек
ElementCount : 1025
Размер потока : 27,4 Кбайт (0%)
Заголовок : SDH
Язык : English
Default : Нет
Forced : Нет

Меню
00:00:00.000 : en:Chapter 1
00:16:21.397 : en:Chapter 2
00:19:55.111 : en:Chapter 3
00:22:29.056 : en:Chapter 4
00:29:03.617 : en:Chapter 5
00:36:24.307 : en:Chapter 6
00:44:05.685 : en:Chapter 7
00:54:14.168 : en:Chapter 8
00:57:21.855 : en:Chapter 9
01:02:08.183 : en:Chapter 10
01:05:17.664 : en:Chapter 11
01:10:17.964 : en:Chapter 12
01:16:58.239 : en:Chapter 13
01:22:11.593 : en:Chapter 14
01:29:49.467 : en:Chapter 15
01:34:34.252 : en:Chapter 16

pb.wtf



Скачать Астрал 4: Последний ключ через торрент http://i104.fastpic.ru/big/2018/0427/b6/c2116f7d897fcb5dadabe4709883d2b6.jpg Скачать фильм Астрал 4: Последний ключ через торрент бесплантно в хорошем качестве Описание: Новая глава истории об экстрасенсе, которая умеет разговаривать с мертвыми. Детство и Элизы было трудным — жестокий отец считал, ... 9 10 8
Торрент: Зарегистрирован [2018-04-28 09:48] · скачан: 528 раз
Статус: √ проверено
Размер: 10.42 GB
Как cкачать? Как скачать Астрал 4: Последний ключ через торрент | qTorrent

% Раздел Тема Автор DL S | L
Видео для КПК и Смартфонов [ 467 MB ] Астрал 4: Последний ключ / Insidious: The Last Key [2018 HDRip КПК] DUB [] bober100 Скачать
1 | 0
Фильмы 2018 [DVDrip, WEB-DLRip, HDrip] (DUB, MVO) [ 1.48 GB ] Астрал 4: Последний ключ / Insidious: The Last Key [2018 BDRip-AVC] DUB [] bober100 Скачать
1 | 0
Фильмы 2018 [DVDrip, WEB-DLRip, HDrip] (DUB, MVO) [ 2.18 GB ] Астрал 4: Последний ключ / Insidious: The Last Key [2018 BDRip] - [] Twi7ter Скачать
2 | 0
Фильмы 2018 [DVDrip, WEB-DLRip, HDrip] (DUB, MVO) [ 745 MB ] Астрал 4: Последний ключ / Insidious: The Last Key [2018 BDRip] DUB [] bober100 Скачать
1 | 0
Фильмы 2018 [DVDrip, WEB-DLRip, HDrip] (DUB, MVO) [ 1.46 GB ] Астрал 4: Последний ключ / Insidious: The Last Key [2018 BDRip] DUB [] bober100 Скачать
1 | 0
Фильмы 2018 [DVDrip, WEB-DLRip, HDrip] (DUB, MVO) [ 1.46 GB ] Астрал 4: Последний ключ / Insidious: The Last Key [2018 BDRip] - [] Twi7ter Скачать
1 | 0
Фильмы (Blu-ray, BD-Remux, HDDVD) [ 20.52 GB ] Астрал 4: Последний ключ / Insidious: The Last Key [2018 BD Remux 1080p] bober100 Скачать
1 | 0

28-11-2019 20:33  

Отключить всю рекламу на сайте

28-04-2018 12:10 Астрал 4: Последний ключ Скачать торрент  

скучная шляпаpb.wtf



10-05-2018 00:06 Астрал 4: Последний ключ Скачать торрент  

фильм херь!!!pb.wtf



12-07-2018 19:32 Астрал 4: Последний ключ Скачать торрент  

Фильм середнячек неуверенный притомpb.wtf



    Дорогой пользователь! Огромная просьба, поблагодарите релизера, оцените раздачу и оставьте свои комментарий, если Вы скачали Астрал 4: Последний ключ через торрент бесплатно! Внесите свою лепту в развитие PiratBit!
    Комментировать посты могут только пользователи прошедшие не сложную регистрацию
    Показать сообщения:    

    Астрал 4: Последний ключ через торрент
    Скачать бесплатно Астрал 4: Последний ключ
    Астрал 4: Последний ключ скачать торрент
    Астрал 4: Последний ключ смотреть онлайн
    Cкачать фильм Астрал 4: Последний ключ бесплатно
    Астрал 4: Последний ключ скачать торрент в хорошем качестве
    Астрал 4: Последний ключ смотреть онлайн бесплатно в хорошем качестве


    Вы не можете начинать темы
    Вы не можете отвечать на сообщения
    Вы не можете редактировать свои сообщения
    Вы не можете удалять свои сообщения
    Вы не можете голосовать в опросах
    Вы не можете прикреплять файлы к сообщениям
    Вы можете скачивать файлы