Ссылка на приватное зеркало нашего сайта всего за 1$. Внимание количество ограничено!!!

2 сезон

iTunes

1 сезон

1

2 сезон

2 сезон

iTunes

1 сезон

RePack

30

Новинка

ВАЖНО

ИГРА 18+

pack

RePack

MK11
pack

Забери бонус

RePack

jed

!!Акция!!

Alien_Rage

RePack

fifa19

RePack

Assassins Creed: Odyssey

RePack

NEED FOR SPEED™ PAYBACK

4 сезон

9 сезон

Бесстыжие 9 сезон

Все сериалы

все сериалы на PB.wtf

RePack

FAR CRY 5
  

Форс-Мажоры / Костюмы в законе / Suits / Сезон: 7 / Серии: 1-16 из 16 (Кевин Брэй, Джон Скотт, Майкл Смит) [2017, Драма, криминал, юриспруденция, комедия, WEB-DLRip] DVO [SunshineStudio] pb.wtf

Форс-Мажоры через торрент pb.wtf

Размер: 8.52 GB | Добавлен: 2 года 7 мес. назад | Торрент скачан:18 раз
Скачать  

28-04-2018 10:25 Форс-Мажоры Скачать торрент  

═╬ Форс-Мажоры / Костюмы в законе / Suits ╬═
✦ Год выпуска: 2017
✦ Страна: США
✦ Жанр: Драма, криминал, юриспруденция, комедия
✦ Продолжительность: ~ 00:43:00 серия
✦ Перевод: Любительский двухголосый |
✦ Субтитры: отсутствуют

✦ Режиссер: Кевин Брэй, Джон Скотт, Майкл Смит

rating

В ролях:

Гэбриел Махт, Патрик Дж. Адамс, Рик Хоффман, Меган Маркл, Сара Рафферти, Джина Торрес, Ванесса Рэй, Том Липински, Макс Топплин, Ребекка Скул, Джулиан ДеЗотти, Бен Льюис и др.

Описание:

В центре сюжета замечательный, но немотивированный молодой человек, так и не закончивший учебу в колледже. У него есть все необходимые качества, чтобы стать хорошим адвокатом, кроме диплома. Но благодаря знаниям законов улицы и напористым, не всегда честным действиям его нанимает влиятельная юридическая фирма из Манхэттена....

Качество: WEB-DLRip
Формат: AVI

Видео: XviD, ~ 1500 Кбит/с, 720x400
Аудио: AC3, 2 ch, 192 Кбит/с

Общее
Полное имя : D:\Suits.S07.400p.SunshineStudio\Suits.S07E01.400p.SunshineStudio.avi
Формат : AVI
Формат/Информация : Audio Video Interleave
Размер файла : 557 Мбайт
Продолжительность : 45 м. 47 с.
Общий поток : 1701 Кбит/сек
Программа кодирования : VirtualDubMod 1.5.10.3 | www.virtualdub-fr.org || (build 2550/release)
Библиотека кодирования : VirtualDubMod build 2550/release

Видео
Идентификатор : 0
Формат : MPEG-4 Visual
Профиль формата : Advanced Simple@L5
Параметр BVOP формата : 1
Параметр QPel формата : Нет
Параметр GMC формата : Без точки перехода
Параметр матрицы формата : Default (H.263)
Идентификатор кодека : XVID
Идентификатор кодека/Подсказка : XviD
Продолжительность : 45 м. 47 с.
Битрейт : 1500 Кбит/сек
Ширина : 720 пикселей
Высота : 400 пикселей
Соотношение сторон : 16:9
Частота кадров : 23,976 (23976/1000) кадра/сек
Цветовое пространство : YUV
Субдискретизация насыщенности : 4:2:0
Битовая глубина : 8 бит
Тип развёртки : Прогрессивная
Метод сжатия : С потерями
Бит/(Пиксели*Кадры) : 0.217
Размер потока : 491 Мбайт (88%)
Библиотека кодирования : XviD 1.2.1 (UTC 2008-12-04)

Аудио
Идентификатор : 1
Формат : AC-3
Формат/Информация : Audio Coding 3
Расширение режима : CM (complete main)
Параметр Endianness формата : Big
Идентификатор кодека : 2000
Продолжительность : 45 м. 47 с.
Вид битрейта : Постоянный
Битрейт : 192 Кбит/сек
Каналы : 2 канала
Расположение каналов : Front: L R
Частота : 48,0 КГц
Частота кадров : 31,250 кадров/сек (1536 spf)
Метод сжатия : С потерями
Размер потока : 62,9 Мбайт (11%)
Выравнивание : Разделение по промежуткам
Продолжительность промежутка : 42 мс. (1,00 видеокадр)
Время предзагрузки промежутка : 500 мс.

pb.wtf



Скачать Форс-Мажоры через торрент http://s48.radikal.ru/i122/1707/71/bc773c17f7ec.png Скачать фильм Форс-Мажоры через торрент бесплантно в хорошем качестве Описание: В центре сюжета замечательный, но немотивированный молодой человек, так и не закончивший учебу в колледже. У него есть все ... 10 10 2
Info! Серебряная раздача, засчитывается только 50% скачанного.
Торрент: Зарегистрирован [2018-04-28 10:25] · скачан: 18 раз
Статус: √ проверено
Размер: 8.52 GB
Как cкачать? Как скачать Форс-Мажоры через торрент | qTorrent

% Раздел Тема Автор DL S | L
Зарубежные сериалы [ 23.87 GB ] Форс-Мажоры / Костюмы в законе / Suits / Сезон: 7 / Серии: 1-16 из 16 [2017 юриспруденция WEB-DL 720p] MVO [NewStudio] bober100 Скачать
1 | 0
Зарубежные сериалы [ 31.07 GB ] Форс-Мажоры / Костюмы в законе / Suits / Сезон: 7 / Серии: 1-16 из 16 [2017 юриспруденция WEB-DL 1080p] MVO [Baibako] bober100 Скачать
1 | 0
Зарубежные сериалы [ 9.44 GB ] Форс-Мажоры / Костюмы в законе / Suits / Сезон: 7 / Серии: 1-16 из 16 [2017 юриспруденция WEB-DLRip] MVO [Baibako] bober100 Скачать
1 | 0
Зарубежные сериалы [ 24.2 GB ] Форс-Мажоры / Костюмы в законе / Suits / Сезон: 7 / Серии: 1-16 из 16 [2017 юриспруденция WEB-DL 720p] MVO [Baibako] bober100 Скачать
1 | 0
Зарубежные сериалы [ 10.72 GB ] Форс-Мажоры / Костюмы в законе / Suits / Сезон: 7 / Серии: 1-16 из 16 [2017 юриспруденция WEB-DL 720p] DVO [SunshineStudio] bober100 Скачать
1 | 0
Зарубежные сериалы [ 29.47 GB ] Форс-Мажоры / Костюмы в законе / Suits / Сезон: 7 / Серии: 1-16 из 16 [2017 юриспруденция WEB-DL 1080p] MVO [NewStudio] bober100 Скачать
1 | 0
Зарубежные сериалы [ 8.92 GB ] Форс-Мажоры / Костюмы в законе / Suits / Сезон: 7 / Серии: 1-16 из 16 [2017 юриспруденция WEB-DLRip] MVO [NewStudio] bober100 Скачать
1 | 0

28-11-2019 20:33  

Отключить всю рекламу на сайте

    Дорогой пользователь! Огромная просьба, поблагодарите релизера, оцените раздачу и оставьте свои комментарий, если Вы скачали Форс-Мажоры через торрент бесплатно! Внесите свою лепту в развитие PiratBit!
    Комментировать посты могут только пользователи прошедшие не сложную регистрацию
    Показать сообщения:    

    Форс-Мажоры через торрент
    Скачать бесплатно Форс-Мажоры
    Форс-Мажоры скачать торрент
    Форс-Мажоры смотреть онлайн
    Cкачать фильм Форс-Мажоры бесплатно
    Форс-Мажоры скачать торрент в хорошем качестве
    Форс-Мажоры смотреть онлайн бесплатно в хорошем качестве


    Вы не можете начинать темы
    Вы не можете отвечать на сообщения
    Вы не можете редактировать свои сообщения
    Вы не можете удалять свои сообщения
    Вы не можете голосовать в опросах
    Вы не можете прикреплять файлы к сообщениям
    Вы можете скачивать файлы