Ссылка на приватное зеркало нашего сайта всего за 1$. Внимание количество ограничено!!!

2 сезон

iTunes

1 сезон

1

iTunes

iTunes

iTunes

1 сезон

RePack

30

ИГРА 18+

pack

ВАЖНО

!!Акция!!

Alien_RageХит недели

RePack

MK11
pack

Забери бонус

RePack

jed

!!Акция!!

Alien_Rage

RePack

fifa19

RePack

Assassins Creed: Odyssey

RePack

NEED FOR SPEED™ PAYBACK

4 сезон

9 сезон

Бесстыжие 9 сезон

Все сериалы

все сериалы на PB.wtf

RePack

FAR CRY 5
  

Внутреннее расследование / Сезон: 1 / Серии: 1-16 из 16 (Вадим Саетгалиев) [2014, боевик, детектив, криминал, SATRip] pb.wtf

Внутреннее расследование через торрент pb.wtf

Размер: 8.6 GB | Добавлен: 2 года 6 мес. назад | Торрент скачан:99 раз
Скачать  

28-04-2018 10:45 Внутреннее расследование Скачать торрент  

Внутреннее расследованиеГод выпуска: 2014
Страна: Россия
Жанр: боевик, детектив, криминал
Продолжительность: ~ 00:46:00
Субтитры: отсутствуют

Режиссер: Вадим Саетгалиев



В ролях:

Филипп Чевычелов, Андрей Родимов, Наталья Индейкина, Сергей Власов, Борис Чистяков, Алексей Лысенко, Сергей Мардарь, Олег Метелев, Дмитрий Певцов, Дмитрий Олейник

Описание:

Новая захватывающая история о нелегкой судьбе начальника убойного отдела Рустема Зайнулина. Современная полиция. Кто в ней – честный «мент»? Кто - «оборотень»? Зайнулина обвиняют в убийстве своего подчиненного - агента под прикрытием. Накануне этого убийства Зайнуллин узнает от своего агента где скрывается криминальный авторитет Низамов. Этот бандит уже давно разыскивается за убийства и Зайнуллин бросается по следу. Но почти сразу его задерживают сотрудники управления собственной безопасности (УСБ). Зачем начальнику убойного отдела понадобилось убивать своего коллегу, так ли уж прав глава отдела «спецопераций» Латунин, который преследует Зайнулина? Разобраться в этом призывают не так давно вернувшегося в строй с заслуженного отдыха полковника Щуку. Полковник не особо рвался возвращаться в органы, его принципы и слегка устаревшие взгляды на жизнь никого, похоже, в этом мире не вдохновляют. Но именно он – честный, опытный, крутой полицейский становится главой Управления собственной безопасности Петербурга. Такой как он не может не докопаться до правды.

Качество: SATRip
Формат: AVI

Видео: 720x400 (16:9), 25 fps ~ 1500 Kbps
Аудио: AC3, 48 KHz 2 ch ~ 192 Kb/s
скриншот   скриншот   скриншот   скриншот   скриншот   скриншот  

Общее
Полное имя : D:\Vnutrenie.rassledovanija.2015.SATRip.Files-x\01.Vnutrenie.rassledovanija.2015.SATRip.Files-x.avi
Формат : AVI
Формат/Информация : Audio Video Interleave
Размер файла : 550 Мбайт
Продолжительность : 47 м. 12 с.
Общий поток : 1631 Кбит/сек
Программа кодирования : VirtualDubMod 1.5.10.3 | www.virtualdub-fr.org || (build 2550/release)
Библиотека кодирования : VirtualDubMod build 2550/release

Видео
Идентификатор : 0
Формат : MPEG-4 Visual
Профиль формата : Advanced Simple@L5
Параметр BVOP формата : 1
Параметр QPel формата : Нет
Параметр GMC формата : Без точки перехода
Параметр матрицы формата : Выборочная
Идентификатор кодека : XVID
Идентификатор кодека/Подсказка : XviD
Продолжительность : 47 м. 12 с.
Битрейт : 1429 Кбит/сек
Ширина : 720 пикселей
Высота : 400 пикселей
Соотношение сторон : 16:9
Частота кадров : 25,000 кадров/сек
Цветовое пространство : YUV
Субдискретизация насыщенности : 4:2:0
Битовая глубина : 8 бит
Тип развёртки : Прогрессивная
Метод сжатия : С потерями
Бит/(Пиксели*Кадры) : 0.198
Размер потока : 482 Мбайт (88%)
Библиотека кодирования : XviD 73

Аудио
Идентификатор : 1
Формат : AC-3
Формат/Информация : Audio Coding 3
Расширение режима : CM (complete main)
Параметр Endianness формата : Big
Идентификатор кодека : 2000
Продолжительность : 47 м. 12 с.
Вид битрейта : Постоянный
Битрейт : 192 Кбит/сек
Каналы : 2 канала
Расположение каналов : Front: L R
Частота : 48,0 КГц
Частота кадров : 31,250 кадров/сек (1536 spf)
Метод сжатия : С потерями
Размер потока : 64,8 Мбайт (12%)
Выравнивание : Разделение по промежуткам
Продолжительность промежутка : 40 мс. (1,00 видеокадр)
Время предзагрузки промежутка : 500 мс.

pb.wtf



Скачать Внутреннее расследование через торрент http://i82.fastpic.ru/big/2016/0919/86/eece9883588fa671ecd9674ff54dd086.jpg Скачать фильм Внутреннее расследование через торрент бесплантно в хорошем качестве Описание: Новая захватывающая история о нелегкой судьбе начальника убойного отдела Рустема Зайнулина. Современная полиция. Кто в ней – ... 7.9 10 8
Торрент: Зарегистрирован [2018-04-28 10:45] · скачан: 99 раз
Статус: √ проверено
Размер: 8.6 GB
Как cкачать? Как скачать Внутреннее расследование через торрент | qTorrent

% Раздел Тема Автор DL S | L
Наши сериалы [ 19.01 GB ] Внутреннее расследование / Сезон: 1 / Серии: 1-16 из 16 [2014 HDTVRip 720p] bober100 Скачать
1 | 0
Наши сериалы [ 11.23 GB ] Внутреннее расследование / Сезон: 1 / Серии: 1-16 из 16 [2014 HDTVRip-AVC] bober100 Скачать
1 | 0
Наши сериалы [ 8.6 GB ] Внутреннее расследование / Сезон: 1 / Серии: 1-16 из 16 [2014 HDTVRip] bober100 Скачать
1 | 0
Наши сериалы [ 43.65 GB ] Внутреннее расследование / Сезон: 1 / Серии: 1-16 из 16 [2014 HDTV 1080i] bober100 Скачать
1 | 0

28-11-2019 20:33  

Отключить всю рекламу на сайте

02-05-2018 17:21 Внутреннее расследование Скачать торрент  

эх и говно, просто пересняли первые серии Ментовских воин!!! даже фразы одни и те же!pb.wtf



    Дорогой пользователь! Огромная просьба, поблагодарите релизера, оцените раздачу и оставьте свои комментарий, если Вы скачали Внутреннее расследование через торрент бесплатно! Внесите свою лепту в развитие PiratBit!
    Комментировать посты могут только пользователи прошедшие не сложную регистрацию
    Показать сообщения:    

    Внутреннее расследование через торрент
    Скачать бесплатно Внутреннее расследование
    Внутреннее расследование скачать торрент
    Внутреннее расследование смотреть онлайн
    Cкачать фильм Внутреннее расследование бесплатно
    Внутреннее расследование скачать торрент в хорошем качестве
    Внутреннее расследование смотреть онлайн бесплатно в хорошем качестве


    Вы не можете начинать темы
    Вы не можете отвечать на сообщения
    Вы не можете редактировать свои сообщения
    Вы не можете удалять свои сообщения
    Вы не можете голосовать в опросах
    Вы не можете прикреплять файлы к сообщениям
    Вы можете скачивать файлы