2 сезон

iTunes

MVO

1

2 сезон

iTunes

iTunes

1 сезон

RePack

30

Новинка

ВАЖНО

ИГРА 18+

pack

RePack

MK11
pack

Легкие деньги

RePack

jed

RePack

fifa19

RePack

RDR2

RePack

NEED FOR SPEED™ PAYBACK

4 сезон

9 сезон

Бесстыжие 9 сезон

Все сериалы

все сериалы на PB.wtf

RePack

FAR CRY 5

Anonymous, добрый вечер, мы не успеваем собрать деньги на оплату серверов за декабрь и январь, помогите нам пожалуйста в это трудное время. В качестве благодарности мы отключим Вам всю рекламу на сайте (укажите свой ник в строку Ваше имя)!

×
  
Magnet ссылка

Взрослые игры / Flower (Макс Уинкле) [2017, Комедия, драма, криминал, WEB-DLRip-AVC] MVO [iTunes] - ExKinoRay pb.wtf

Взрослые игры через торрент pb.wtf

Раздают: 1 [ 0 KB/s ]
Размер: 1.5 GB | Добавлен: 2 года 8 мес. назад | Торрент скачан:963 раза
Скачать  

28-04-2018 13:42 Взрослые игры Скачать торрент  

Название: Взрослые игры
Оригинальное название: Flower
Год выпуска: 2017
Жанр: Комедия, драма, криминал
Выпущено: США, Diablo Entertainment (II), Rough House Pictures, Metalwork Pictures
Продолжительность: 01:33:35
Перевод: Профессиональный многоголосый | iTunes
Режиссер: Макс Уинклер
В ролях: Зои Дойч, Кэтрин Хан, Адам Скотт, Дилан Гелула, Эрик Эдельштейн, Тим Хайдекер, Майя Эшет, Джои Морган, Роми Бирн, Джоэл Хебнер

О фильме: Бесстыжая и бесстрашная Эрика готова на любые выходки, лишь бы почувствовать настоящую взрослую жизнь. Для этого у Эрики есть две веселые подруги, одно необычное хобби и целая Калифорния. Далекие от невинности забавы меняются, когда отчим знакомит Эрику со своим сыном. Кажется, у этого неуклюжего и ранимого парня нет с девушкой ничего общего, однако вскоре он перевернет ее жизнь, и дерзкая инди-комедия обернется для героев криминальным роуд-муви по солнечным просторам долины Сан-Фернандо.

rating

Файл
Формат: MKV
Качество: WEB-DLRip-AVC
Видео: MPEG-4 AVC, 1024x550 (1.85:1), 23.976 fps, 1910 Kbps, 0.141 bit/pixel
Аудио: 48 kHz, AC3, 5.1 ch, ~384 kbps avg - Rus
General
Unique ID : 219437413380582960303598029370035042108 (0xA5161BC8F0B29084899A1180C38C773C)
Complete name : D:\Flower.2O18.P.AVC.ExKinoRay.mkv
Format : Matroska
Format version : Version 2
File size : 1.50 GiB
Duration : 1 h 33 min
Overall bit rate : 2 293 kb/s
Movie name : Flower 2O18 from ExKinoRay
Encoded date : UTC 2018-04-28 12:31:13
Writing application : mkvmerge v5.6.0 ('Kenya Kane') built on May 27 2012 16:44:04
Writing library : libebml v1.2.3 + libmatroska v1.3.0

Video
ID : 1
Format : AVC
Format/Info : Advanced Video Codec
Format profile : High@L4.1
Format settings, CABAC : Yes
Format settings, ReFrames : 11 frames
Codec ID : V_MPEG4/ISO/AVC
Duration : 1 h 33 min
Bit rate : 1 910 kb/s
Width : 1 024 pixels
Height : 550 pixels
Display aspect ratio : 1.85:1
Frame rate mode : Constant
Frame rate : 23.976 (23976/1000) FPS
Color space : YUV
Chroma subsampling : 4:2:0
Bit depth : 8 bits
Scan type : Progressive
Bits/(Pixel*Frame) : 0.141
Stream size : 1.22 GiB (81%)
Title : Enigma
Writing library : x264 core 152 r2851 ba24899
Encoding settings : cabac=1 / ref=11 / deblock=1:-2:-2 / analyse=0x3:0x113 / me=umh / subme=10 / psy=1 / psy_rd=1.05:0.10 / mixed_ref=1 / me_range=32 / chroma_me=1 / trellis=2 / 8x8dct=1 / cqm=0 / deadzone=21,11 / fast_pskip=0 / chroma_qp_offset=-3 / threads=12 / lookahead_threads=3 / sliced_threads=0 / nr=0 / decimate=0 / interlaced=0 / bluray_compat=0 / constrained_intra=0 / bframes=10 / b_pyramid=2 / b_adapt=2 / b_bias=0 / direct=3 / weightb=1 / open_gop=0 / weightp=2 / keyint=240 / keyint_min=23 / scenecut=40 / intra_refresh=0 / rc_lookahead=40 / rc=2pass / mbtree=0 / bitrate=1910 / ratetol=1.0 / qcomp=0.60 / qpmin=0 / qpmax=51 / qpstep=4 / cplxblur=20.0 / qblur=0.5 / vbv_maxrate=50000 / vbv_bufsize=62500 / nal_hrd=none / filler=0 / ip_ratio=1.40 / pb_ratio=1.30 / aq=3:0.90
Language : English
Default : Yes
Forced : No
Color range : Limited
Color primaries : BT.709
Transfer characteristics : BT.709
Matrix coefficients : BT.709

Audio
ID : 2
Format : AC-3
Format/Info : Audio Coding 3
Mode extension : CM (complete main)
Format settings, Endianness : Big
Codec ID : A_AC3
Duration : 1 h 33 min
Bit rate mode : Constant
Bit rate : 384 kb/s
Channel(s) : 6 channels
Channel positions : Front: L C R, Side: L R, LFE
Sampling rate : 48.0 kHz
Frame rate : 31.250 FPS (1536 spf)
Compression mode : Lossy
Stream size : 257 MiB (17%)
Title : iTunes
Language : Russian
Default : Yes
Forced : No

Menu
00:00:00.000 : en:1
00:00:40.000 : en:2
00:07:43.000 : en:3
00:17:25.000 : en:4
00:27:10.000 : en:5
00:38:56.000 : en:6
00:49:47.000 : en:7
01:01:39.000 : en:8
01:10:56.000 : en:9
01:23:49.000 : en:10
01:27:03.000 : en:11
Релиз от:

Автор релиза: pb.wtf



Скачать Взрослые игры через торрент http://i105.fastpic.ru/big/2018/0426/aa/4bf7631493d05646d4c675c5d030f6aa.jpg Скачать фильм Взрослые игры через торрент бесплантно в хорошем качестве О фильме: Бесстыжая и бесстрашная Эрика готова на любые выходки, лишь бы почувствовать настоящую взрослую жизнь. Для этого у Эрики есть две ... 10 10 12
Info! Золотая раздача, скачанное не засчитывается.
Торрент: Зарегистрирован [2018-04-28 13:42] · скачан: 963 раз
Статус: √ проверено
Размер: 1.5 GB
Как cкачать? Как скачать Взрослые игры через торрент | UTorrent

28-11-2019 20:33  

Отключить всю рекламу на сайте

28-04-2018 19:27 Взрослые игры Скачать торрент  

Как фильм?pb.wtf



02-05-2018 16:45 Взрослые игры Скачать торрент  

фильм ерунда полная,нудный и ни о чем.pb.wtf



03-06-2018 22:15 Взрослые игры Скачать торрент  

Посмотреть можно, пойдет.pb.wtf



    Дорогой пользователь! Огромная просьба, поблагодарите релизера, оцените раздачу и оставьте свои комментарий, если Вы скачали Взрослые игры через торрент бесплатно! Внесите свою лепту в развитие PiratBit!
    Комментировать посты могут только пользователи прошедшие не сложную регистрацию
    Показать сообщения:    

    Взрослые игры через торрент
    Скачать бесплатно Взрослые игры
    Взрослые игры скачать торрент
    Взрослые игры смотреть онлайн
    Cкачать фильм Взрослые игры бесплатно
    Взрослые игры скачать торрент в хорошем качестве
    Взрослые игры смотреть онлайн бесплатно в хорошем качестве


    Вы не можете начинать темы
    Вы не можете отвечать на сообщения
    Вы не можете редактировать свои сообщения
    Вы не можете удалять свои сообщения
    Вы не можете голосовать в опросах
    Вы не можете прикреплять файлы к сообщениям
    Вы можете скачивать файлы