Ссылка на приватное зеркало нашего сайта всего за 1$. Внимание количество ограничено!!!

2 сезон

iTunes

1 сезон

1

iTunes

iTunes

iTunes

1 сезон

RePack

30

ИГРА 18+

pack

ВАЖНО

!!Акция!!

Alien_RageХит недели

RePack

MK11
pack

Забери бонус

RePack

jed

!!Акция!!

Alien_Rage

RePack

fifa19

RePack

Assassins Creed: Odyssey

RePack

NEED FOR SPEED™ PAYBACK

4 сезон

9 сезон

Бесстыжие 9 сезон

Все сериалы

все сериалы на PB.wtf

RePack

FAR CRY 5
  

Внутреннее расследование / Сезон: 1 / Серии: 1-16 из 16 (Вадим Саетгалиев) [2014, боевик, детектив, криминал, HDTV 1080i] pb.wtf

Внутреннее расследование через торрент pb.wtf

Размер: 43.65 GB | Добавлен: 2 года 5 мес. назад | Торрент скачан:5 раз
Скачать  

28-04-2018 14:06 Внутреннее расследование Скачать торрент  

Внутреннее расследованиеГод выпуска: 2014
Страна: Россия
Жанр: боевик, детектив, криминал
Продолжительность: ~ 00:46:00
Субтитры: отсутствуют

Режиссер: Вадим Саетгалиев



В ролях:

Филипп Чевычелов, Андрей Родимов, Наталья Индейкина, Сергей Власов, Борис Чистяков, Алексей Лысенко, Сергей Мардарь, Олег Метелев, Дмитрий Певцов, Дмитрий Олейник

Описание:

Новая захватывающая история о нелегкой судьбе начальника убойного отдела Рустема Зайнулина. Современная полиция. Кто в ней – честный «мент»? Кто - «оборотень»? Зайнулина обвиняют в убийстве своего подчиненного - агента под прикрытием. Накануне этого убийства Зайнуллин узнает от своего агента где скрывается криминальный авторитет Низамов. Этот бандит уже давно разыскивается за убийства и Зайнуллин бросается по следу. Но почти сразу его задерживают сотрудники управления собственной безопасности (УСБ). Зачем начальнику убойного отдела понадобилось убивать своего коллегу, так ли уж прав глава отдела «спецопераций» Латунин, который преследует Зайнулина? Разобраться в этом призывают не так давно вернувшегося в строй с заслуженного отдыха полковника Щуку. Полковник не особо рвался возвращаться в органы, его принципы и слегка устаревшие взгляды на жизнь никого, похоже, в этом мире не вдохновляют. Но именно он – честный, опытный, крутой полицейский становится главой Управления собственной безопасности Петербурга. Такой как он не может не докопаться до правды.

Качество: HDTV 1080i
Формат: MPEG-TS

Видео: 1920х1080 (16:9), 25 fps, AVC MPEG-4 (x264), High@L4.0 ~ 8500 kbps , 0.152 bit/pixel
Аудио: 48 kHz, MPEG Layer 2, 2 ch, ~ 192 kbps avg
скриншот   скриншот   скриншот   скриншот  

Общее
Идентификатор : 1 (0x1)
Полное имя : D:\Vnutrenie.rassledovanija.2014.HDTV.(1080i).Nikolspup\Vnutrenie.rassledovanija.(01.seriya.iz.16).2014.HDTV.(1080i).Nikolspup.ts
Формат : MPEG-TS
Размер файла : 2,73 Гбайт
Продолжительность : 46 м. 10 с.
Режим общего битрейта : Переменный
Общий поток : 8474 Кбит/сек

Видео
Идентификатор : 67 (0x43)
Идентификатор меню : 1 (0x1)
Формат : AVC
Формат/Информация : Advanced Video Codec
Профиль формата : Main@L4
Параметр CABAC формата : Да
Параметр RefFrames формата : 2 кадра
Параметр GOP формата : M=3, N=30
Идентификатор кодека : 27
Продолжительность : 46 м. 10 с.
Битрейт : 7861 Кбит/сек
Ширина : 1920 пикселей
Высота : 1080 пикселей
Соотношение сторон : 16:9
Частота кадров : 25,000 кадров/сек
Цветовое пространство : YUV
Субдискретизация насыщенности : 4:2:0
Битовая глубина : 8 бит
Тип развёртки : MBAFF
Метод сохранения типа развёртки : Чередующиеся поля
Порядок развёртки : Верхнее поле первое
Бит/(Пиксели*Кадры) : 0.152
Размер потока : 2,54 Гбайт (93%)
Цветовой диапазон : Limited
Основные цвета : BT.709
Характеристики трансфера : BT.709
Коэффициенты матрицы : BT.709

Аудио
Идентификатор : 68 (0x44)
Идентификатор меню : 1 (0x1)
Формат : MPEG Audio
Версия формата : Version 1
Профиль формата : Layer 2
Идентификатор кодека : 3
Продолжительность : 46 м. 10 с.
Вид битрейта : Постоянный
Битрейт : 192 Кбит/сек
Каналы : 2 канала
Частота : 48,0 КГц
Метод сжатия : С потерями
Задержка видео : -40 мс.
Размер потока : 63,4 Мбайт (2%)
Язык : Russian

pb.wtf



Скачать Внутреннее расследование через торрент http://i82.fastpic.ru/big/2016/0919/86/eece9883588fa671ecd9674ff54dd086.jpg Скачать фильм Внутреннее расследование через торрент бесплантно в хорошем качестве Описание: Новая захватывающая история о нелегкой судьбе начальника убойного отдела Рустема Зайнулина. Современная полиция. Кто в ней – ... 7 10 3
Info! Золотая раздача, скачанное не засчитывается.
Торрент: Зарегистрирован [2018-04-28 14:06] · скачан: 5 раз
Статус: √ проверено
Размер: 43.65 GB
Как cкачать? Как скачать Внутреннее расследование через торрент | qTorrent

% Раздел Тема Автор DL S | L
Наши сериалы [ 8.6 GB ] Внутреннее расследование / Сезон: 1 / Серии: 1-16 из 16 [2014 SATRip] bober100 Скачать
1 | 0
Наши сериалы [ 19.01 GB ] Внутреннее расследование / Сезон: 1 / Серии: 1-16 из 16 [2014 HDTVRip 720p] bober100 Скачать
1 | 0
Наши сериалы [ 11.23 GB ] Внутреннее расследование / Сезон: 1 / Серии: 1-16 из 16 [2014 HDTVRip-AVC] bober100 Скачать
1 | 0
Наши сериалы [ 8.6 GB ] Внутреннее расследование / Сезон: 1 / Серии: 1-16 из 16 [2014 HDTVRip] bober100 Скачать
1 | 0

28-11-2019 20:33  

Отключить всю рекламу на сайте

    Дорогой пользователь! Огромная просьба, поблагодарите релизера, оцените раздачу и оставьте свои комментарий, если Вы скачали Внутреннее расследование через торрент бесплатно! Внесите свою лепту в развитие PiratBit!
    Комментировать посты могут только пользователи прошедшие не сложную регистрацию
    Показать сообщения:    

    Внутреннее расследование через торрент
    Скачать бесплатно Внутреннее расследование
    Внутреннее расследование скачать торрент
    Внутреннее расследование смотреть онлайн
    Cкачать фильм Внутреннее расследование бесплатно
    Внутреннее расследование скачать торрент в хорошем качестве
    Внутреннее расследование смотреть онлайн бесплатно в хорошем качестве


    Вы не можете начинать темы
    Вы не можете отвечать на сообщения
    Вы не можете редактировать свои сообщения
    Вы не можете удалять свои сообщения
    Вы не можете голосовать в опросах
    Вы не можете прикреплять файлы к сообщениям
    Вы можете скачивать файлы