новый адрес
Ссылка на приватное зеркало всего за 1$. Внимание количество ограничено!!!

iTunes

1+1

iTunes

мы

iTunes

1

iTunes

Чернобыль

iTunes

Ральф против интернета

Лицензия

ПШазам

Лицензия

Оно 2

Лицензия

30
pack

Вам бонус

ВАЖНО

!!Акция!!

Alien_RageХит недели

RePack

Resident Evil 21

ИГРА 18+

pack

RePack

jed

!!Акция!!

Alien_Rage

RePack

fifa19

RePack

Assassins Creed: Odyssey

RePack

NEED FOR SPEED™ PAYBACK

3 сезон

9 сезон

Бесстыжие 9 сезон

Все сериалы

все сериалы на PB.wtf

RePack

FAR CRY 5
Ребята, катастрофически не хватает 1900р. для оплаты серверов за Октябрь (всвязи с блокировками трафик упал в 3 раза), 1-2р., выручайте.
  

Пространство / The Expanse / Сезон: 3 / Серии: 1-13 из 13 (Роберт Либерман, Терри МакДонаф) [2018, Фантастика, детектив, WEBRip 720p] MVO [BaibaKo] pb.wtf

Пространство через торрент pb.wtf

Размер: 20.94 GB | Добавлен: 1 год 4 мес. назад | Торрент скачан:29 раз
Скачать  

28-04-2018 16:01 Пространство Скачать торрент  

Пространство / The Expanse
Год выпуска: 2018
Страна: США
Жанр: Фантастика, детектив
Продолжительность: ~ 00:43:00
Перевод: Профессиональный многоголосый |
Субтитры: отсутствуют

Режиссер: Роберт Либерман, Терри МакДонаф

rating

В ролях:

Шоре Агдашлу, Кэс Анвар, Уэс Чэтэм, Томас Джейн, Стивен Стрейт, Доминик Типпер, Афина Карканис, Чад Л. Коулмэн, Илайс Туфекси

Описание:

Через двести лет от дня сегодняшнего некий сыщик, привыкший всё доводить до конца при любых обстоятельствах, в рамках расследования дела об исчезновении молодой женщины оказывается на борту звездолета, капитан которого решает помочь детективу в его непростом деле. Величайший заговор в истории человечества гарантируется, как и его непременное раскрытие.

Качество: WEBRip 720p
Формат: MKV

Видео: MPEG-4 AVC, ~ 4 100 Кбит/с, 1280x720
Аудио#1: Русский (AC3, 6 ch, 640 Кбит/с)
Аудио#2: английский (AC3, 6 ch, 640 Кбит/с)
скриншот   скриншот   скриншот  

Общее
Уникальный идентификатор : 246365380627897800696862299117098560473 (0xB9583F12D5FC52178458336799AAEBD9)
Полное имя : D:\The.Expanse.s03.HD720p.WEBRip.Rus.Eng.BaibaKo.tv\The.Expanse.s03e01.HD720p.WEBRip.Rus.Eng.BaibaKo.tv.mkv
Формат : Matroska
Версия формата : Version 4 / Version 2
Размер файла : 1,64 Гбайт
Продолжительность : 44 м. 21 с.
Общий поток : 5303 Кбит/сек
Дата кодирования : UTC 2018-04-12 12:02:59
Программа кодирования : mkvmerge v9.3.1 ('Mask Machine') 64bit
Библиотека кодирования : libebml v1.3.4 + libmatroska v1.4.5

Видео
Идентификатор : 1
Формат : AVC
Формат/Информация : Advanced Video Codec
Профиль формата : High@L4.1
Параметр CABAC формата : Да
Параметр RefFrames формата : 4 кадра
Идентификатор кодека : V_MPEG4/ISO/AVC
Продолжительность : 44 м. 21 с.
Битрейт : 4021 Кбит/сек
Ширина : 1280 пикселей
Высота : 720 пикселей
Соотношение сторон : 16:9
Режим частоты кадров : Постоянный
Частота кадров : 23,976 (24000/1001) кадра/сек
Цветовое пространство : YUV
Субдискретизация насыщенности : 4:2:0
Битовая глубина : 8 бит
Тип развёртки : Прогрессивная
Бит/(Пиксели*Кадры) : 0.182
Размер потока : 1,25 Гбайт (76%)
Default : Да
Forced : Нет

Аудио #1
Идентификатор : 2
Формат : AC-3
Формат/Информация : Audio Coding 3
Расширение режима : CM (complete main)
Параметр Endianness формата : Big
Идентификатор кодека : A_AC3
Продолжительность : 44 м. 21 с.
Вид битрейта : Постоянный
Битрейт : 640 Кбит/сек
Каналы : 6 каналов
Расположение каналов : Front: L C R, Side: L R, LFE
Частота : 48,0 КГц
Частота кадров : 31,250 кадров/сек (1536 spf)
Метод сжатия : С потерями
Размер потока : 203 Мбайт (12%)
Язык : Russian
Default : Да
Forced : Нет

Аудио #2
Идентификатор : 3
Формат : AC-3
Формат/Информация : Audio Coding 3
Расширение режима : CM (complete main)
Параметр Endianness формата : Big
Идентификатор кодека : A_AC3
Продолжительность : 44 м. 21 с.
Вид битрейта : Постоянный
Битрейт : 640 Кбит/сек
Каналы : 6 каналов
Расположение каналов : Front: L C R, Side: L R, LFE
Частота : 48,0 КГц
Частота кадров : 31,250 кадров/сек (1536 spf)
Метод сжатия : С потерями
Размер потока : 203 Мбайт (12%)
Язык : English
Default : Нет
Forced : Нет

Внимание! Раздача ведётся путём добавления новых серий; при каждом добавлении создаётся новый торрент. Чтобы начать докачку новой серии, пользователям необходимо сделать следующее:
(1) остановить скачивание,
(2) удалить старый торрент у себя из клиента (старые серии удалять не надо),
(3) скачать новый торрент и запустить его у себя в клиенте вместо старого, при этом указать клиенту путь в старую папку куда и должно происходить скачивание новых серий.
Ваш клиент при этом должен произвести хеширование (проверку) старой папки (если не производит сам - помогите ему сделать это), и будет докачивать только те серии которых у вас ещё нет. Старые серии при этом не удаляются, а продолжают раздаваться!
Eсли вы уже удалили старые серии, то предотвратить повторную закачку старых серий можно, отжав галочку в соответствующих местах при запуске нового торрента. По возможности, желательно не удалять старые серии как можно дольше чтобы релизёр не столько продолжал раздавать старые серии, а смог сконцентрироваться на новых.
pb.wtf



Скачать Пространство через торрент http://pic1.kartinco.top/images/11/qax43.jpg Скачать фильм Пространство через торрент бесплантно в хорошем качестве Описание: Через двести лет от дня сегодняшнего некий сыщик, привыкший всё доводить до конца при любых обстоятельствах, в рамках ... 9.2 10 11
Info! Серебряная раздача, засчитывается только 50% скачанного.
Торрент: Зарегистрирован [2018-06-28 20:44] · скачан: 29 раз
Статус: √ проверено
Размер: 20.94 GB
Как cкачать? Как скачать Пространство через торрент | qTorrent

% Раздел Тема Автор DL S | L
Зарубежные сериалы [ 14.18 GB ] Пространство / Экспансия / The Expanse / Сезон: 3 / Серии: 1-13 из 13 [2018 WEB-DL 720p] MVO [LostFilm] bober100 Скачать
1 | 0
Зарубежные сериалы [ 27.91 GB ] Пространство / Экспансия / The Expanse / Сезон: 3 / Серии: 1-13 из 13 [2018 WEB-DL 1080p] MVO [Jaskier] bober100 Скачать
1 | 0
Зарубежные сериалы [ 29.93 GB ] Пространство / Экспансия / The Expanse / Сезон: 3 / Серии: 1-13 из 13 [2018 WEB-DL 1080p] MVO [LostFilm] bober100 Скачать
2 | 0
Зарубежные сериалы [ 7.05 GB ] Пространство / Экспансия / The Expanse / Сезон: 3 / Серии: 1-13 из 13 [2018 WEB-DLRip] MVO [LostFilm] bober100 Скачать
4 | 0
Зарубежные сериалы [ 12.16 GB ] Пространство / Экспансия / The Expanse / Сезон: 3 / Серии: 1-13 из 13 [2018 WEB-DL 720p] MVO [Jaskier] bober100 Скачать
1 | 0
Зарубежные сериалы [ 6.99 GB ] Пространство / Экспансия / The Expanse / Сезон: 3 / Серии: 1-13 из 13 [2018 WEB-DLRip] MVO [Jaskier] bober100 Скачать
1 | 0
Зарубежные сериалы [ 6.68 GB ] Пространство / The Expanse / Сезон: 3 / Серии: 1-13 из 13 [2018 WEB-DLRip] MVO [AlexFilm] bober100 Скачать
1 | 0


>> Переходим по ссылке <<
Автоматически подгузится скрипт который настроит ваш браузер на выигрыш!!
После настройки браузера вероятность выигрыша увеличется в 4.1-4,6 раза.
В течение 6 секунд вам откроется настроенный интерфейс казино, с повышенной вероятностью выигрыша.






Отзывы и комментарии о схеме читаем и пишем здесь: ---> Отзывы и комментарии о схеме

Новые благодарочки в телеграм довольных пользователей:
скриншот   скриншот   скриншот   скриншот   скриншот
    Дорогой пользователь! Огромная просьба, поблагодарите релизера, оцените раздачу и оставьте свои комментарий, если Вы скачали Пространство через торрент бесплатно! Внесите свою лепту в развитие PiratBit!
    Комментировать посты могут только пользователи прошедшие не сложную регистрацию
    Показать сообщения:    

    Пространство через торрент
    Скачать бесплатно Пространство
    Пространство скачать торрент
    Пространство смотреть онлайн
    Cкачать фильм Пространство бесплатно
    Пространство скачать торрент в хорошем качестве
    Пространство смотреть онлайн бесплатно в хорошем качестве


    Вы не можете начинать темы
    Вы не можете отвечать на сообщения
    Вы не можете редактировать свои сообщения
    Вы не можете удалять свои сообщения
    Вы не можете голосовать в опросах
    Вы не можете прикреплять файлы к сообщениям
    Вы можете скачивать файлы