Достать ножи: Стеклянная луковица

MVO

Добыча

Дубляж

Уэнсдэй

1 сезон

Тор

Дубляж

13 клиническая

1 сезон

Жестокая ночь

MVO

Одни из нас

1 сезон

Deluxe

pack

Рекомендуем

30

Пиратка

ВАЖНО

ВАЖНО

Ghostwire

Пиратка

jed

RePack

nioh2

RePack

RDR2

RePack

NEED FOR SPEED™ PAYBACK

RePack

скачать торрент

Кинопоиск HD

Острые козырьки 6 сезон

6 сезон

FAR CRY 6

RePack

скачать торрент

Лицензия

скачать торрент

MVO

1

1 сезон

скачать торрент

1 сезон

скачать торрент

Лицензия

  

Идеальный голос 3 / Pitch Perfect 3 (Триш Си) [2017, Комедия, музыка, BDRip 720p] Дубляж [Лицензия]

Идеальный голос 3 через торрент pb.wtf

Размер: 6.44 GB | Добавлен: 4 года 9 мес. назад | Торрент скачан:101 раз
Смотреть онлайн | Скачать | Поддержите нас   

29-04-2018 01:26 Идеальный голос 3 Скачать торрент  

Идеальный голос 3 / Pitch Perfect 3
Год выпуска: 2017
Страна: США
Жанр: Комедия, музыка
Продолжительность: 01:33:02
Перевод: Дублированный | Лицензия
Субтитры: Русские (forced, full), английские

Режиссер: Триш Си

rating

В ролях:

Анна Кендрик, Ребел Уилсон, Бриттани Сноу, Анна Кэмп, Хейли Стайнфелд, Эстер Дин, Хана Мэй Ли, Келли Джакл, Шелли Регнер, Крисси Фит

Описание:

История о коллективе юных и амбициозных певиц, которых ожидают новые вызовы и испытания на пути к успеху и широкому признанию.

Качество: BDRip 720p
Формат: MKV

Видео: MPEG-4 AVC, 1280x692, 7179 Kbit/s, 23.976 fps
Аудио#1: 48 kHz, DTS, 5.1, 768 Kbps | Дублированный | RUS |
Аудио#2: 48 kHz, AC3, 5.1, 448 Kbps | Дублированный | RUS |
Аудио#3: 48 kHz, DTS, 5.1, 1510 Kbps | Оригинал | ENG |
скриншот   скриншот   скриншот   скриншот   скриншот  

General
Unique ID : 193639331459400835983530977687995465373 (0x91AD9424D2C1F226AFD8A908097CBE9D)
Complete name : C:Video111Pitch.Perfect.3.2017.BDRip.720p.ExKinoRay.mkv
Format : Matroska
Format version : Version 4 / Version 2
File size : 6.44 GiB
Duration : 1 h 33 min
Overall bit rate : 9 908 kb/s
Movie name : Pitch Perfect 3 2017 from ExKinoRay
Encoded date : UTC 2018-04-28 23:28:33
Writing application : mkvmerge v7.3.0 ('Nouages') 64bit built on Oct 22 2014 18:53:34
Writing library : libebml v1.3.0 + libmatroska v1.4.1

Video
ID : 1
Format : AVC
Format/Info : Advanced Video Codec
Format profile : [email protected]
Format settings : CABAC / 9 Ref Frames
Format settings, CABAC : Yes
Format settings, ReFrames : 9 frames
Codec ID : V_MPEG4/ISO/AVC
Duration : 1 h 33 min
Bit rate : 7 179 kb/s
Width : 1 280 pixels
Height : 692 pixels
Display aspect ratio : 1.85:1
Frame rate mode : Constant
Frame rate : 23.976 (24000/1001) FPS
Color space : YUV
Chroma subsampling : 4:2:0
Bit depth : 8 bits
Scan type : Progressive
Bits/(Pixel*Frame) : 0.338
Stream size : 4.67 GiB (72%)
Writing library : x264 core 142 r2431+42 c69a006 tMod [[email protected] X86_64]
Encoding settings : cabac=1 / ref=9 / deblock=1:-2:-2 / analyse=0x3:0x133 / me=umh / subme=11 / psy=1 / fade_compensate=0.00 / psy_rd=1.00:0.00 / mixed_ref=1 / me_range=32 / chroma_me=1 / trellis=2 / 8x8dct=1 / cqm=0 / deadzone=21,11 / fast_pskip=0 / chroma_qp_offset=0 / threads=12 / lookahead_threads=3 / sliced_threads=0 / nr=0 / decimate=0 / interlaced=0 / bluray_compat=0 / constrained_intra=0 / fgo=0 / bframes=10 / b_pyramid=2 / b_adapt=2 / b_bias=0 / direct=3 / weightb=1 / open_gop=0 / weightp=2 / keyint=250 / keyint_min=23 / scenecut=40 / intra_refresh=0 / rc=crf / mbtree=0 / crf=16.5000 / qcomp=0.70 / qpmin=0:0:0 / qpmax=69:69:69 / qpstep=4 / ip_ratio=1.40 / pb_ratio=1.30 / aq=1:0.80 / aq-sensitivity=10.00 / aq-factor=1.00:1.00:1.00 / aq2=0 / aq3=0
Language : English
Default : Yes
Forced : No

Audio #1
ID : 2
Format : DTS
Format/Info : Digital Theater Systems
Codec ID : A_DTS
Duration : 1 h 33 min
Bit rate mode : Constant
Bit rate : 768 kb/s
Channel(s) : 6 channels
Channel positions : Front: L C R, Side: L R, LFE
Sampling rate : 48.0 kHz
Frame rate : 93.750 FPS (512 SPF)
Bit depth : 24 bits
Compression mode : Lossy
Stream size : 511 MiB (8%)
Title : Дубляж [License]
Language : Russian
Default : Yes
Forced : Yes

Audio #2
ID : 3
Format : AC-3
Format/Info : Audio Coding 3
Codec ID : A_AC3
Duration : 1 h 33 min
Bit rate mode : Constant
Bit rate : 448 kb/s
Channel(s) : 6 channels
Channel positions : Front: L C R, Side: L R, LFE
Sampling rate : 48.0 kHz
Frame rate : 31.250 FPS (1536 SPF)
Bit depth : 16 bits
Compression mode : Lossy
Stream size : 298 MiB (5%)
Title : Дубляж [License]
Language : Russian
Service kind : Complete Main
Default : No
Forced : No

Audio #3
ID : 4
Format : DTS
Format/Info : Digital Theater Systems
Codec ID : A_DTS
Duration : 1 h 33 min
Bit rate mode : Constant
Bit rate : 1 509 kb/s
Channel(s) : 6 channels
Channel positions : Front: L C R, Side: L R, LFE
Sampling rate : 48.0 kHz
Frame rate : 93.750 FPS (512 SPF)
Bit depth : 24 bits
Compression mode : Lossy
Stream size : 1 004 MiB (15%)
Title : Original
Language : English
Default : No
Forced : No

Text #1
ID : 5
Format : UTF-8
Codec ID : S_TEXT/UTF8
Codec ID/Info : UTF-8 Plain Text
Duration : 1 h 31 min
Bit rate : 21 b/s
Count of elements : 347
Stream size : 14.7 KiB (0%)
Title : Forced
Language : Russian
Default : Yes
Forced : Yes

Text #2
ID : 6
Format : UTF-8
Codec ID : S_TEXT/UTF8
Codec ID/Info : UTF-8 Plain Text
Duration : 1 h 32 min
Bit rate : 93 b/s
Count of elements : 1694
Stream size : 63.1 KiB (0%)
Title : Full
Language : Russian
Default : No
Forced : No

Text #3
ID : 7
Format : UTF-8
Codec ID : S_TEXT/UTF8
Codec ID/Info : UTF-8 Plain Text
Duration : 1 h 29 min
Bit rate : 101 b/s
Count of elements : 2071
Stream size : 66.8 KiB (0%)
Title : Full
Language : English
Default : No
Forced : No

Text #4
ID : 8
Format : UTF-8
Codec ID : S_TEXT/UTF8
Codec ID/Info : UTF-8 Plain Text
Duration : 1 h 31 min
Bit rate : 107 b/s
Count of elements : 2203
Stream size : 72.5 KiB (0%)
Title : SDH
Language : English
Default : No
Forced : No

Text #5
ID : 9
Format : UTF-8
Codec ID : S_TEXT/UTF8
Codec ID/Info : UTF-8 Plain Text
Duration : 1 h 31 min
Bit rate : 209 b/s
Count of elements : 2203
Stream size : 141 KiB (0%)
Title : SDH Colored
Language : English
Default : No
Forced : No

Menu
00:00:00.000 : en:00:00:00.000
00:02:38.533 : en:00:02:38.533
00:05:18.318 : en:00:05:18.318
00:09:31.529 : en:00:09:31.529
00:14:15.563 : en:00:14:15.563
00:16:55.431 : en:00:16:55.431
00:19:09.940 : en:00:19:09.940
00:24:51.657 : en:00:24:51.657
00:29:26.765 : en:00:29:26.765
00:34:33.113 : en:00:34:33.113
00:38:41.402 : en:00:38:41.402
00:45:50.831 : en:00:45:50.831
00:50:31.612 : en:00:50:31.612
00:55:42.548 : en:00:55:42.548
00:59:15.469 : en:00:59:15.469
01:05:01.189 : en:01:05:01.189
01:09:42.053 : en:01:09:42.053
01:15:24.729 : en:01:15:24.729
01:19:25.928 : en:01:19:25.928
01:26:20.175 : en:01:26:20.175




Скачать Идеальный голос 3 через торрент https://pic1.kartinco.top/images/11/9tcdq.jpg Скачать, смотреть онлайн Идеальный голос 3 бесплантно в хорошем качестве Описание: История о коллективе юных и амбициозных певиц, которых ожидают новые вызовы и испытания на пути к успеху и широкому ... 10 10 3
Торрент: Зарегистрирован [2018-04-29 01:26] · скачан: 101 раз
Статус: √ проверено
Размер: 6.44 GB
Как cкачать? Как скачать Идеальный голос 3 через торрент | UTorrent

% Раздел Тема Автор DL S | L
Ultra HD (UHD: 2K, 4K, 8K) [ 52.96 GB ] Идеальный голос 3 / Pitch Perfect 3 | Лицензия | 2160p bober100 Скачать
1 | 1
Фильмы 2017 [DVDrip, WEB-DLRip, HDrip] (DUB, MVO) [ 1.46 GB ] Идеальный голос 3 / Pitch Perfect 3 | Лицензия | BDRip Twi7ter Скачать
1 | 0
Фильмы 2017 [DVDrip, WEB-DLRip, HDrip] (DUB, MVO) [ 1.37 GB ] Идеальный голос 3 / Pitch Perfect 3 | Лицензия | HDRip bober100 Скачать
1 | 0
Фильмы (Blu-ray, BD-Remux, HDDVD) [ 21.09 GB ] Идеальный голос 3 / Pitch Perfect 3 | Лицензия | BD Remux 1080p bober100 Скачать
1 | 0
Фильмы [HD 720p, 1080p] (Хороший звук DUB, MVO) [ 11.73 GB ] Идеальный голос 3 / Pitch Perfect 3 | Лицензия | 1080p bober100 Скачать
1 | 0

28-11-2019 20:33  


Отключить вcю реклaмy на сайте, в т.ч. и в плеере онлайн просмотра!

    Дорогой пользователь! Огромная просьба, поблагодарите релизера, оцените раздачу и оставьте свои комментарий, если Вы скачали Идеальный голос 3 через торрент бесплатно!!
    Комментировать посты могут только пользователи прошедшие не сложную регистрацию
    Показать сообщения:    


    Идеальный голос 3 через торрент
    Скачать бесплатно Идеальный голос 3
    Идеальный голос 3 скачать торрент
    Идеальный голос 3 смотреть онлайн
    Cкачать фильм Идеальный голос 3 бесплатно
    Идеальный голос 3 скачать торрент в хорошем качестве
    Идеальный голос 3 смотреть онлайн бесплатно в хорошем качестве
    Вы не можете начинать темы
    Вы не можете отвечать на сообщения
    Вы не можете редактировать свои сообщения
    Вы не можете удалять свои сообщения
    Вы не можете голосовать в опросах
    Вы не можете прикреплять файлы к сообщениям
    Вы можете скачивать файлы
    Идеальный голос 3 / Pitch Perfect 3 [2017, Комедия, музыка, BDRip 720p] Дубляж [Лицензия] смотреть онлайн, скачать торрент picoco.icu