Ссылка на приватное зеркало нашего сайта всего за 1$. Внимание количество ограничено!!!

2 сезон

iTunes

1 сезон

1

2 сезон

2 сезон

iTunes

1 сезон

RePack

30

Новинка

ВАЖНО

ИГРА 18+

pack

RePack

MK11
pack

Забери бонус

RePack

jed

!!Акция!!

Alien_Rage

RePack

fifa19

RePack

Assassins Creed: Odyssey

RePack

NEED FOR SPEED™ PAYBACK

4 сезон

9 сезон

Бесстыжие 9 сезон

Все сериалы

все сериалы на PB.wtf

RePack

FAR CRY 5
  

Идеальный голос 3 / Pitch Perfect 3 (Триш Си) [2017, Комедия, музыка, BD Remux 1080p] DUB [Лицензия] pb.wtf

Идеальный голос 3 через торрент pb.wtf

Размер: 21.09 GB | Добавлен: 2 года 7 мес. назад | Торрент скачан:16 раз
Скачать  

29-04-2018 01:34 Идеальный голос 3 Скачать торрент  

Идеальный голос 3 / Pitch Perfect 3
Год выпуска: 2017
Страна: США
Жанр: Комедия, музыка
Продолжительность: 01:33:02
Перевод: Дублированный | Лицензия
Субтитры: Русские (forced, full), английские

Режиссер: Триш Си

rating

В ролях:

Анна Кендрик, Ребел Уилсон, Бриттани Сноу, Анна Кэмп, Хейли Стайнфелд, Эстер Дин, Хана Мэй Ли, Келли Джакл, Шелли Регнер, Крисси Фит

Описание:

История о коллективе юных и амбициозных певиц, которых ожидают новые вызовы и испытания на пути к успеху и широкому признанию.

Качество: BD Remux 1080p
Формат: MKV

Видео: MPEG-4 AVC, 1920x1080, 25.9 Mbit/s, 23.976 fps
Аудио#1: 48 kHz, DTS, 5.1, 768 Kbps | Дублированный | RUS |
Аудио#2: 48 kHz, AC3, 5.1, 448 Kbps | Дублированный | RUS |
Аудио#3: 48 kHz, DTS-HD MA, 7.1, 5334 Kbps | Оригинал | ENG |
скриншот  скриншот  скриншот  скриншот  скриншот  

General
Unique ID : 297634017458814277462205971463549719200 (0xDFEA3A06FE788707D78E56B5A65792A0)
Complete name : C:Video111Pitch.Perfect.3.2017.BDREMUX.1080p.ExKinoRay.mkv
Format : Matroska
Format version : Version 4 / Version 2
File size : 21.1 GiB
Duration : 1 h 33 min
Overall bit rate mode : Variable
Overall bit rate : 32.4 Mb/s
Movie name : Pitch Perfect 3 2017 from ExKinoRay
Encoded date : UTC 2018-04-28 23:42:47
Writing application : mkvmerge v22.0.0 ('At The End Of The World') 64-bit
Writing library : libebml v1.3.5 + libmatroska v1.4.8

Video
ID : 1
Format : AVC
Format/Info : Advanced Video Codec
Format profile : High@L4.1
Format settings : CABAC / 4 Ref Frames
Format settings, CABAC : Yes
Format settings, ReFrames : 4 frames
Codec ID : V_MPEG4/ISO/AVC
Duration : 1 h 33 min
Bit rate mode : Variable
Bit rate : 25.9 Mb/s
Maximum bit rate : 28.0 Mb/s
Width : 1 920 pixels
Height : 1 080 pixels
Display aspect ratio : 16:9
Frame rate mode : Constant
Frame rate : 23.976 (24000/1001) FPS
Color space : YUV
Chroma subsampling : 4:2:0
Bit depth : 8 bits
Scan type : Progressive
Bits/(Pixel*Frame) : 0.521
Stream size : 16.8 GiB (80%)
Language : English
Default : Yes
Forced : No

Audio #1
ID : 2
Format : DTS
Format/Info : Digital Theater Systems
Codec ID : A_DTS
Duration : 1 h 33 min
Bit rate mode : Constant
Bit rate : 768 kb/s
Channel(s) : 6 channels
Channel positions : Front: L C R, Side: L R, LFE
Sampling rate : 48.0 kHz
Frame rate : 93.750 FPS (512 SPF)
Bit depth : 24 bits
Compression mode : Lossy
Stream size : 511 MiB (2%)
Title : Dub [License]
Language : Russian
Default : Yes
Forced : Yes

Audio #2
ID : 3
Format : AC-3
Format/Info : Audio Coding 3
Codec ID : A_AC3
Duration : 1 h 33 min
Bit rate mode : Constant
Bit rate : 448 kb/s
Channel(s) : 6 channels
Channel positions : Front: L C R, Side: L R, LFE
Sampling rate : 48.0 kHz
Frame rate : 31.250 FPS (1536 SPF)
Bit depth : 16 bits
Compression mode : Lossy
Stream size : 298 MiB (1%)
Title : Dub [License]
Language : Russian
Service kind : Complete Main
Default : No
Forced : No

Audio #3
ID : 4
Format : DTS
Format/Info : Digital Theater Systems
Format profile : X / MA / Core
Codec ID : A_DTS
Duration : 1 h 33 min
Bit rate mode : Variable / Variable / Constant
Bit rate : 5 334 kb/s / 5 334 kb/s / 1 509 kb/s
Channel(s) : Object Based / 8 channels / 6 channels
Channel positions : Object Based / Front: L C R, Side: L R, Back: L R, LFE / Front: L C R, Side: L R, LFE
Sampling rate : / 48.0 kHz / 48.0 kHz
Frame rate : 93.750 FPS (512 SPF)
Bit depth : / 24 bits / 24 bits
Compression mode : / Lossless / Lossy
Stream size : 3.47 GiB (16%)
Title : Original
Language : English
Default : No
Forced : No

Text #1
ID : 5
Format : UTF-8
Codec ID : S_TEXT/UTF8
Codec ID/Info : UTF-8 Plain Text
Duration : 1 h 31 min
Bit rate : 21 b/s
Count of elements : 347
Stream size : 14.7 KiB (0%)
Title : Forced
Language : Russian
Default : Yes
Forced : Yes

Text #2
ID : 6
Format : UTF-8
Codec ID : S_TEXT/UTF8
Codec ID/Info : UTF-8 Plain Text
Duration : 1 h 32 min
Bit rate : 93 b/s
Count of elements : 1694
Stream size : 63.1 KiB (0%)
Title : Full
Language : Russian
Default : No
Forced : No

Text #3
ID : 7
Format : UTF-8
Codec ID : S_TEXT/UTF8
Codec ID/Info : UTF-8 Plain Text
Duration : 1 h 29 min
Bit rate : 101 b/s
Count of elements : 2071
Stream size : 66.8 KiB (0%)
Title : Full
Language : English
Default : No
Forced : No

Text #4
ID : 8
Format : UTF-8
Codec ID : S_TEXT/UTF8
Codec ID/Info : UTF-8 Plain Text
Duration : 1 h 31 min
Bit rate : 107 b/s
Count of elements : 2203
Stream size : 72.5 KiB (0%)
Title : SDH
Language : English
Default : No
Forced : No

Text #5
ID : 9
Format : UTF-8
Codec ID : S_TEXT/UTF8
Codec ID/Info : UTF-8 Plain Text
Duration : 1 h 31 min
Bit rate : 209 b/s
Count of elements : 2203
Stream size : 141 KiB (0%)
Title : SDH Colored
Language : English
Default : No
Forced : No

Menu
00:00:00.000 : en:00:00:00.000
00:02:38.533 : en:00:02:38.533
00:05:18.318 : en:00:05:18.318
00:09:31.529 : en:00:09:31.529
00:14:15.563 : en:00:14:15.563
00:16:55.431 : en:00:16:55.431
00:19:09.940 : en:00:19:09.940
00:24:51.657 : en:00:24:51.657
00:29:26.765 : en:00:29:26.765
00:34:33.113 : en:00:34:33.113
00:38:41.402 : en:00:38:41.402
00:45:50.831 : en:00:45:50.831
00:50:31.612 : en:00:50:31.612
00:55:42.548 : en:00:55:42.548
00:59:15.469 : en:00:59:15.469
01:05:01.189 : en:01:05:01.189
01:09:42.053 : en:01:09:42.053
01:15:24.729 : en:01:15:24.729
01:19:25.928 : en:01:19:25.928
01:26:20.175 : en:01:26:20.175

pb.wtf



Скачать Идеальный голос 3 через торрент http://pic1.kartinco.top/images/11/9tcdq.jpg Скачать фильм Идеальный голос 3 через торрент бесплантно в хорошем качестве Описание: История о коллективе юных и амбициозных певиц, которых ожидают новые вызовы и испытания на пути к успеху и широкому ... 10 10 4
Торрент: Зарегистрирован [2018-04-29 01:34] · скачан: 16 раз
Статус: √ проверено
Размер: 21.09 GB
Как cкачать? Как скачать Идеальный голос 3 через торрент | qTorrent

% Раздел Тема Автор DL S | L
Ultra HD (UHD: 2K, 4K, 8K) — видео сверхвысокой чёткости [ 52.96 GB ] Идеальный голос 3 / Pitch Perfect 3 [2017 музыка UHD BDRemux 2160p] DUB [] bober100 Скачать
1 | 0
Фильмы 2017 [DVDrip, WEB-DLRip, HDrip] (DUB, MVO) [ 1.46 GB ] Идеальный голос 3 / Pitch Perfect 3 [2017 музыка BDRip] - [] Twi7ter Скачать
1 | 0
Фильмы 2017 [DVDrip, WEB-DLRip, HDrip] (DUB, MVO) [ 1.37 GB ] Идеальный голос 3 / Pitch Perfect 3 [2017 музыка HDRip] DUB [] bober100 Скачать
1 | 0
Фильмы [HD 720p, 1080p] (Хороший звук DUB, MVO) [ 6.44 GB ] Идеальный голос 3 / Pitch Perfect 3 [2017 музыка BDRip 720p] DUB [] bober100 Скачать
1 | 0
Фильмы [HD 720p, 1080p] (Хороший звук DUB, MVO) [ 11.73 GB ] Идеальный голос 3 / Pitch Perfect 3 [2017 музыка BDRip 1080p] DUB [] bober100 Скачать
1 | 0

28-11-2019 20:33  

Отключить всю рекламу на сайте

    Дорогой пользователь! Огромная просьба, поблагодарите релизера, оцените раздачу и оставьте свои комментарий, если Вы скачали Идеальный голос 3 через торрент бесплатно! Внесите свою лепту в развитие PiratBit!
    Комментировать посты могут только пользователи прошедшие не сложную регистрацию
    Показать сообщения:    

    Идеальный голос 3 через торрент
    Скачать бесплатно Идеальный голос 3
    Идеальный голос 3 скачать торрент
    Идеальный голос 3 смотреть онлайн
    Cкачать фильм Идеальный голос 3 бесплатно
    Идеальный голос 3 скачать торрент в хорошем качестве
    Идеальный голос 3 смотреть онлайн бесплатно в хорошем качестве


    Вы не можете начинать темы
    Вы не можете отвечать на сообщения
    Вы не можете редактировать свои сообщения
    Вы не можете удалять свои сообщения
    Вы не можете голосовать в опросах
    Вы не можете прикреплять файлы к сообщениям
    Вы можете скачивать файлы