новый адрес
Ссылка на приватное зеркало всего за 1$. Внимание количество ограничено!!!

iTunes

1+1

iTunes

мы

iTunes

1

iTunes

Чернобыль

iTunes

Ральф против интернета

Лицензия

ПШазам

Лицензия

Оно 2

Лицензия

30
pack

Вам бонус

ВАЖНО

!!Акция!!

Alien_RageХит недели

RePack

Resident Evil 21

ИГРА 18+

pack

RePack

jed

!!Акция!!

Alien_Rage

RePack

fifa19

RePack

Assassins Creed: Odyssey

RePack

NEED FOR SPEED™ PAYBACK

3 сезон

9 сезон

Бесстыжие 9 сезон

Все сериалы

все сериалы на PB.wtf

RePack

FAR CRY 5
Ребята, катастрофически не хватает 1900р. для оплаты серверов за Октябрь (всвязи с блокировками трафик упал в 3 раза), 1-2р., выручайте.
  

Астрал 4: Последний ключ / Insidious: The Last Key (Адам Робител) [2018, ужасы, триллер, BDRip-AVC] DUB [Лицензия] pb.wtf

Астрал 4: Последний ключ через торрент pb.wtf

Раздают: 1 [ 0 KB/s ]
Размер: 1.48 GB | Добавлен: 1 год 7 мес. назад | Торрент скачан:720 раз
Скачать  

29-04-2018 01:57 Астрал 4: Последний ключ Скачать торрент  

Астрал 4: Последний ключ / Insidious: The Last Key Год выпуска: 2018
Страна: Канада, США
Жанр: ужасы, триллер, детектив
Продолжительность: 01:43:25
Перевод: Дублированный | Лицензия
Субтитры: Русские, английские

Режиссер: Адам Робител

rating

В ролях:

Кирк Асеведо, Спенсер Лок, Джош Стюарт, Лин Шэй, Энгус Сэмпсон, Хавьер Ботет, Брюс Дэвисон, Хана Хэйес, Ли Уоннелл, Кейтлин Джерард

Описание:

Новая глава истории об экстрасенсе, которая умеет разговаривать с мертвыми. На этот раз в жизнь воплощается ее самый страшный кошмар: сущности из потустороннего мира проникают в ее собственный дом.

Качество: BDRip-AVC
Формат: MKV

Видео: 1024x428 (2.40:1), 23,976 fps, x264 ~1 150 kbps avg, 0.109 bit/pixel
Аудио#1: 48 kHz, AC3 Dolby Digital, 3/2 (L,C,R,l,r) + LFE ch, ~448.00 kbps avg | RUS (Лицензия)
Аудио#2: 48 kHz, AC3 Dolby Digital, 3/2 (L,C,R,l,r) + LFE ch, ~448.00 kbps avg | ENG
скриншот   скриншот   скриншот   скриншот   скриншот  

Общее
Уникальный идентификатор : 252442935726048235388629556244930873889 (0xBDEABDACB22D2C68B2DEDDDAA9ABCA21)
Полное имя : E:\OlLanDGroup\Insidious.The.Last.Key.2017.BDRip(AVC).OlLanDGroup.mkv
Формат : Matroska
Версия формата : Version 4 / Version 2
Размер файла : 1,48 Гбайт
Продолжительность : 1 ч. 43 м.
Общий поток : 2048 Кбит/сек
Название фильма : Insidious.The.Last.Key.2017 #TorpedoUK#
Дата кодирования : UTC 2018-04-28 01:02:57
Программа кодирования : mkvmerge v7.8.0 ('River Man') 32bit built on Apr 3 2015 12:11:22
Библиотека кодирования : libebml v1.3.1 + libmatroska v1.4.2

Видео
Идентификатор : 1
Формат : AVC
Формат/Информация : Advanced Video Codec
Профиль формата : High@L4.1
Параметр CABAC формата : Да
Параметр ReFrames формата : 10 кадров
Идентификатор кодека : V_MPEG4/ISO/AVC
Продолжительность : 1 ч. 43 м.
Битрейт : 1150 Кбит/сек
Ширина : 1024 пикселя
Высота : 428 пикселей
Соотношение сторон : 2,40:1
Режим частоты кадров : Постоянный
Частота кадров : 23,976 (24000/1001) кадра/сек
Цветовое пространство : YUV
Субдискретизация насыщенности : 4:2:0
Битовая глубина : 8 бит
Тип развёртки : Прогрессивная
Бит/(Пиксели*Кадры) : 0.109
Размер потока : 851 Мбайт (56%)
Библиотека кодирования : x264 core 146 r2538 121396c
Настройки программы : cabac=1 / ref=10 / deblock=1:-3:-3 / analyse=0x3:0x133 / me=umh / subme=11 / psy=1 / psy_rd=1.00:0.05 / mixed_ref=1 / me_range=48 / chroma_me=1 / trellis=2 / 8x8dct=1 / cqm=0 / deadzone=21,11 / fast_pskip=1 / chroma_qp_offset=-3 / threads=6 / lookahead_threads=1 / sliced_threads=0 / nr=0 / decimate=1 / interlaced=0 / bluray_compat=0 / constrained_intra=0 / bframes=10 / b_pyramid=2 / b_adapt=2 / b_bias=0 / direct=3 / weightb=1 / open_gop=0 / weightp=2 / keyint=240 / keyint_min=23 / scenecut=40 / intra_refresh=0 / rc_lookahead=40 / rc=2pass / mbtree=0 / bitrate=1150 / ratetol=1.0 / qcomp=0.60 / qpmin=0 / qpmax=69 / qpstep=4 / cplxblur=20.0 / qblur=0.5 / vbv_maxrate=50000 / vbv_bufsize=62500 / nal_hrd=none / filler=0 / ip_ratio=1.40 / pb_ratio=1.30 / aq=1:1.00
Язык : English
Default : Да
Forced : Нет

Аудио #1
Идентификатор : 2
Формат : AC-3
Формат/Информация : Audio Coding 3
Расширение режима : CM (complete main)
Параметр Endianness формата : Big
Идентификатор кодека : A_AC3
Продолжительность : 1 ч. 43 м.
Вид битрейта : Постоянный
Битрейт : 448 Кбит/сек
Каналы : 6 каналов
Расположение каналов : Front: L C R, Side: L R, LFE
Частота : 48,0 КГц
Частота кадров : 31,250 кадров/сек (1536 spf)
Битовая глубина : 16 бит
Метод сжатия : С потерями
Размер потока : 331 Мбайт (22%)
Заголовок : License
Язык : Russian
Default : Да
Forced : Нет

Аудио #2
Идентификатор : 3
Формат : AC-3
Формат/Информация : Audio Coding 3
Расширение режима : CM (complete main)
Параметр Endianness формата : Big
Идентификатор кодека : A_AC3
Продолжительность : 1 ч. 43 м.
Вид битрейта : Постоянный
Битрейт : 448 Кбит/сек
Каналы : 6 каналов
Расположение каналов : Front: L C R, Side: L R, LFE
Частота : 48,0 КГц
Частота кадров : 31,250 кадров/сек (1536 spf)
Битовая глубина : 16 бит
Метод сжатия : С потерями
Размер потока : 331 Мбайт (22%)
Заголовок : Original
Язык : English
Default : Нет
Forced : Нет

Текст #1
Идентификатор : 4
Формат : UTF-8
Идентификатор кодека : S_TEXT/UTF8
Идентификатор кодека/Информация : UTF-8 Plain Text
Продолжительность : 1 ч. 41 м.
Битрейт : 0 бит/сек
Count of elements : 5
Размер потока : 233 байт (0%)
Заголовок : Forced
Язык : Russian
Default : Да
Forced : Нет

Текст #2
Идентификатор : 5
Формат : UTF-8
Идентификатор кодека : S_TEXT/UTF8
Идентификатор кодека/Информация : UTF-8 Plain Text
Продолжительность : 1 ч. 42 м.
Битрейт : 49 бит/сек
Count of elements : 852
Размер потока : 37,0 Кбайт (0%)
Заголовок : Full
Язык : Russian
Default : Нет
Forced : Нет

Текст #3
Идентификатор : 6
Формат : UTF-8
Идентификатор кодека : S_TEXT/UTF8
Идентификатор кодека/Информация : UTF-8 Plain Text
Продолжительность : 1 ч. 34 м.
Битрейт : 34 бит/сек
Count of elements : 835
Размер потока : 23,7 Кбайт (0%)
Заголовок : Full
Язык : English
Default : Нет
Forced : Нет

Меню
00:00:00.000 : en:00:00:00.000
00:16:21.397 : en:00:16:21.397
00:19:55.107 : en:00:19:55.107
00:22:29.056 : en:00:22:29.056
00:29:03.615 : en:00:29:03.615
00:36:24.306 : en:00:36:24.306
00:44:05.684 : en:00:44:05.684
00:54:14.166 : en:00:54:14.166
00:57:21.855 : en:00:57:21.855
01:02:08.181 : en:01:02:08.181
01:05:17.663 : en:01:05:17.663
01:10:17.962 : en:01:10:17.962
01:16:58.238 : en:01:16:58.238
01:22:11.591 : en:01:22:11.591
01:29:49.466 : en:01:29:49.466
01:34:34.251 : en:01:34:34.251

pb.wtf



Скачать Астрал 4: Последний ключ через торрент http://lostpix.com/img/2018-03/20/l4p5qzilu2i6wy02g06ekydu9.jpg Скачать фильм Астрал 4: Последний ключ через торрент бесплантно в хорошем качестве Описание: Новая глава истории об экстрасенсе, которая умеет разговаривать с мертвыми. На этот раз в жизнь воплощается ее самый страшный ... 9.6 10 14
Торрент: Зарегистрирован [2018-04-29 01:57] · скачан: 720 раз
Статус: √ проверено
Размер: 1.48 GB
Как cкачать? Как скачать Астрал 4: Последний ключ через торрент | qTorrent

% Раздел Тема Автор DL S | L
Видео для КПК и Смартфонов [ 467 MB ] Астрал 4: Последний ключ / Insidious: The Last Key [2018 HDRip КПК] DUB [] bober100 Скачать
1 | 0
Фильмы [HD 720p, 1080p] (Хороший звук DUB, MVO) [ 10.42 GB ] Астрал 4: Последний ключ / Insidious: The Last Key [2018 BDRip 1080p ] oleg8 Скачать
1 | 0
Фильмы 2018 [DVDrip, WEB-DLRip, HDrip] (DUB, MVO) [ 2.18 GB ] Астрал 4: Последний ключ / Insidious: The Last Key [2018 BDRip] - [] Twi7ter Скачать
2 | 0
Фильмы 2018 [DVDrip, WEB-DLRip, HDrip] (DUB, MVO) [ 745 MB ] Астрал 4: Последний ключ / Insidious: The Last Key [2018 BDRip] DUB [] bober100 Скачать
1 | 0
Фильмы 2018 [DVDrip, WEB-DLRip, HDrip] (DUB, MVO) [ 1.46 GB ] Астрал 4: Последний ключ / Insidious: The Last Key [2018 BDRip] DUB [] bober100 Скачать
1 | 0
Фильмы 2018 [DVDrip, WEB-DLRip, HDrip] (DUB, MVO) [ 1.46 GB ] Астрал 4: Последний ключ / Insidious: The Last Key [2018 BDRip] - [] Twi7ter Скачать
1 | 0
Фильмы (Blu-ray, BD-Remux, HDDVD) [ 20.52 GB ] Астрал 4: Последний ключ / Insidious: The Last Key [2018 BD Remux 1080p] bober100 Скачать
1 | 0
Отключить всю рекламу на сайте

17-05-2018 01:56 Астрал 4: Последний ключ Скачать торрент  

уже что-нибудь по прикольнее бы придумали. а то одно и то же 4 фильма подряд. Прям как в Ассасине первом, если кто игралpb.wtf



19-05-2018 14:55 Астрал 4: Последний ключ Скачать торрент  

Абсолютно не информативные скрины, где спойлеры?? Где жуть моментов и завлекаловка??
pb.wtf



    Дорогой пользователь! Огромная просьба, поблагодарите релизера, оцените раздачу и оставьте свои комментарий, если Вы скачали Астрал 4: Последний ключ через торрент бесплатно! Внесите свою лепту в развитие PiratBit!
    Комментировать посты могут только пользователи прошедшие не сложную регистрацию
    Показать сообщения:    

    Астрал 4: Последний ключ через торрент
    Скачать бесплатно Астрал 4: Последний ключ
    Астрал 4: Последний ключ скачать торрент
    Астрал 4: Последний ключ смотреть онлайн
    Cкачать фильм Астрал 4: Последний ключ бесплатно
    Астрал 4: Последний ключ скачать торрент в хорошем качестве
    Астрал 4: Последний ключ смотреть онлайн бесплатно в хорошем качестве


    Вы не можете начинать темы
    Вы не можете отвечать на сообщения
    Вы не можете редактировать свои сообщения
    Вы не можете удалять свои сообщения
    Вы не можете голосовать в опросах
    Вы не можете прикреплять файлы к сообщениям
    Вы можете скачивать файлы