Ссылка на приватное зеркало нашего сайта всего за 1$. Внимание количество ограничено!!!

2 сезон

iTunes

1 сезон

1

2 сезон

2 сезон

iTunes

1 сезон

RePack

30

Новинка

ВАЖНО

ИГРА 18+

pack

RePack

MK11
pack

Забери бонус

RePack

jed

!!Акция!!

Alien_Rage

RePack

fifa19

RePack

Assassins Creed: Odyssey

RePack

NEED FOR SPEED™ PAYBACK

4 сезон

9 сезон

Бесстыжие 9 сезон

Все сериалы

все сериалы на PB.wtf

RePack

FAR CRY 5
  

Бегущий в лабиринте: Лекарство от смерти / Maze Runner: The Death Cure (Уэс Болл) [2018, фантастика, боевик, триллер, BD Remux 1080p] MVO [HDRezka Studio] +DUB (rus, ukr) [Лицензия] pb.wtf

Бегущий в лабиринте: Лекарство от смерти через торрент pb.wtf

Размер: 28.08 GB | Добавлен: 2 года 6 мес. назад | Торрент скачан:137 раз
Скачать  

29-04-2018 03:06 Бегущий в лабиринте: Лекарство от смерти Скачать торрент  

Бегущий в лабиринте: Лекарство от смерти / Maze Runner: The Death Cure
Год выпуска: 2018
Страна: США
Жанр: фантастика, боевик, триллер
Продолжительность: 02:23:52
Перевод:

#1: Дублированный | Лицензия
#2: Профессиональный (многоголосый) | HDRezka Studio

Субтитры: Русские (full), украинские (full), английские

Режиссер: Уэс Болл

rating

В ролях:

Дилан О Брайен, Ли Ги-хон, Кая Скоделарио, Томас Сэнгстер, Декстер Дарден, Уилл Поултер, Джейкоб Лофленд, Роза Салазар, Джанкарло Эспозито, Патришия Кларксон

Описание:

Томас возглавляет отряд выживших глейдеров, чтобы выполнить последнюю и самую опасную миссию. Ради спасения своих друзей они должны проникнуть в легендарный Последний город, смертоносный лабиринт, контролируемый ПОРОКом. Каждый, кто выживет там, наконец-то получит ответы на все вопросы, которые мучили глейдеров с момента попадания в лабиринт.

Качество: BD Remux 1080p
Формат: MKV

Видео: MPEG-4 AVC, 1920x1080, 21.0 Мbit/s, 23.976 fps
Аудио#1: 48 kHz, DTS, 5.1, 768 Kbps | Дублированный | RUS |
Аудио#2: 48 kHz, AC3, 5.1, 448 Kbps | Дублированный| RUS |
Аудио#3: 48 kHz, AC3, 2.0, 192 Kbps | HDRezka Studio | RUS |
Аудио#4: 48 kHz, AC3, 5.1, 448 Kbps | Дублированный| UKR |скриншот  
Аудио#5: 48 kHz, DTS-HD MA, 7.1, 5120 Kbps | Оригинал | ENG |

General
Unique ID : 68096439672789728487393412320643487762 (0x333AE5B0AE8280C8544201D651739812)
Complete name : C:Video111Maze.Runner.The.Death.Cure.2018.Lic.BDREMUX.1080p.ExKinoRay.mkv
Format : Matroska
Format version : Version 4 / Version 2
File size : 28.1 GiB
Duration : 2 h 23 min
Overall bit rate mode : Variable
Overall bit rate : 27.9 Mb/s
Movie name : Maze Runner: The Death Cure 2018 from ExKinoRay
Encoded date : UTC 2018-04-29 02:18:58
Writing application : mkvmerge v22.0.0 ('At The End Of The World') 64-bit
Writing library : libebml v1.3.5 + libmatroska v1.4.8

Video
ID : 1
Format : AVC
Format/Info : Advanced Video Codec
Format profile : High@L4.1
Format settings : CABAC / 2 Ref Frames
Format settings, CABAC : Yes
Format settings, ReFrames : 2 frames
Codec ID : V_MPEG4/ISO/AVC
Duration : 2 h 23 min
Bit rate mode : Variable
Bit rate : 21.0 Mb/s
Width : 1 920 pixels
Height : 1 080 pixels
Display aspect ratio : 16:9
Frame rate mode : Constant
Frame rate : 23.976 (24000/1001) FPS
Color space : YUV
Chroma subsampling : 4:2:0
Bit depth : 8 bits
Scan type : Progressive
Bits/(Pixel*Frame) : 0.422
Stream size : 21.1 GiB (75%)
Language : English
Default : Yes
Forced : No

Audio #1
ID : 2
Format : DTS
Format/Info : Digital Theater Systems
Codec ID : A_DTS
Duration : 2 h 23 min
Bit rate mode : Constant
Bit rate : 768 kb/s
Channel(s) : 6 channels
Channel positions : Front: L C R, Side: L R, LFE
Sampling rate : 48.0 kHz
Frame rate : 93.750 FPS (512 SPF)
Bit depth : 24 bits
Compression mode : Lossy
Stream size : 790 MiB (3%)
Title : Dub [License]
Language : Russian
Default : Yes
Forced : Yes

Audio #2
ID : 3
Format : AC-3
Format/Info : Audio Coding 3
Codec ID : A_AC3
Duration : 2 h 23 min
Bit rate mode : Constant
Bit rate : 448 kb/s
Channel(s) : 6 channels
Channel positions : Front: L C R, Side: L R, LFE
Sampling rate : 48.0 kHz
Frame rate : 31.250 FPS (1536 SPF)
Bit depth : 16 bits
Compression mode : Lossy
Stream size : 461 MiB (2%)
Title : Dub [License]
Language : Russian
Service kind : Complete Main
Default : No
Forced : No

Audio #3
ID : 4
Format : AC-3
Format/Info : Audio Coding 3
Codec ID : A_AC3
Duration : 2 h 23 min
Bit rate mode : Constant
Bit rate : 192 kb/s
Channel(s) : 2 channels
Channel positions : Front: L R
Sampling rate : 48.0 kHz
Frame rate : 31.250 FPS (1536 SPF)
Bit depth : 16 bits
Compression mode : Lossy
Stream size : 198 MiB (1%)
Title : MVO [HDRezka]
Language : Russian
Service kind : Complete Main
Default : No
Forced : No

Audio #4
ID : 5
Format : AC-3
Format/Info : Audio Coding 3
Codec ID : A_AC3
Duration : 2 h 23 min
Bit rate mode : Constant
Bit rate : 448 kb/s
Channel(s) : 6 channels
Channel positions : Front: L C R, Side: L R, LFE
Sampling rate : 48.0 kHz
Frame rate : 31.250 FPS (1536 SPF)
Bit depth : 16 bits
Compression mode : Lossy
Delay relative to video : 14 ms
Stream size : 461 MiB (2%)
Title : Dub [License]
Language : Ukrainian
Service kind : Complete Main
Default : No
Forced : No

Audio #5
ID : 6
Format : DTS
Format/Info : Digital Theater Systems
Format profile : MA / Core
Codec ID : A_DTS
Duration : 2 h 23 min
Bit rate mode : Variable / Constant
Bit rate : 5 120 kb/s / 1 509 kb/s
Channel(s) : 8 channels / 6 channels
Channel positions : Front: L C R, Side: L R, Back: L R, LFE / Front: L C R, Side: L R, LFE
Sampling rate : 48.0 kHz
Frame rate : 93.750 FPS (512 SPF)
Bit depth : 24 bits
Compression mode : Lossless / Lossy
Stream size : 5.15 GiB (18%)
Title : Original
Language : English
Default : No
Forced : No

Text #1
ID : 7
Format : UTF-8
Codec ID : S_TEXT/UTF8
Codec ID/Info : UTF-8 Plain Text
Duration : 2 h 22 min
Bit rate : 55 b/s
Count of elements : 1389
Stream size : 57.6 KiB (0%)
Title : Full
Language : Russian
Default : No
Forced : No

Text #2
ID : 8
Format : UTF-8
Codec ID : S_TEXT/UTF8
Codec ID/Info : UTF-8 Plain Text
Duration : 2 h 20 min
Bit rate : 49 b/s
Count of elements : 1397
Stream size : 50.4 KiB (0%)
Title : Full
Language : Ukrainian
Default : No
Forced : No

Text #3
ID : 9
Format : UTF-8
Codec ID : S_TEXT/UTF8
Codec ID/Info : UTF-8 Plain Text
Duration : 2 h 15 min
Bit rate : 35 b/s
Count of elements : 1475
Stream size : 35.5 KiB (0%)
Title : Full
Language : English
Default : No
Forced : No

Text #4
ID : 10
Format : UTF-8
Codec ID : S_TEXT/UTF8
Codec ID/Info : UTF-8 Plain Text
Duration : 2 h 15 min
Bit rate : 40 b/s
Count of elements : 1688
Stream size : 40.6 KiB (0%)
Title : SDH
Language : English
Default : No
Forced : No

Menu
00:00:00.000 : en:Chapter 1
00:11:31.607 : en:Chapter 2
00:15:59.750 : en:Chapter 3
00:20:08.457 : en:Chapter 4
00:24:34.890 : en:Chapter 5
00:30:40.547 : en:Chapter 6
00:36:47.330 : en:Chapter 7
00:43:15.342 : en:Chapter 8
00:48:06.341 : en:Chapter 9
00:55:17.397 : en:Chapter 10
01:02:42.925 : en:Chapter 11
01:07:14.488 : en:Chapter 12
01:11:56.061 : en:Chapter 13
01:15:48.210 : en:Chapter 14
01:23:20.328 : en:Chapter 15
01:29:45.421 : en:Chapter 16
01:34:00.593 : en:Chapter 17
01:40:09.795 : en:Chapter 18
01:43:33.081 : en:Chapter 19
01:53:38.645 : en:Chapter 20
01:59:43.885 : en:Chapter 21
02:04:49.398 : en:Chapter 22
02:10:03.086 : en:Chapter 23
02:18:03.858 : en:Chapter 24

pb.wtf



Скачать Бегущий в лабиринте: Лекарство от смерти через торрент http://img12.lostpic.net/2018/04/13/865d40980046361083307e71e3f73d9d.jpg Скачать фильм Бегущий в лабиринте: Лекарство от смерти через торрент бесплантно в хорошем качестве Описание: Томас возглавляет отряд выживших глейдеров, чтобы выполнить последнюю и самую опасную миссию. Ради спасения своих друзей они ... 10 10 4
Торрент: Зарегистрирован [2018-04-29 03:06] · скачан: 137 раз
Статус: √ проверено
Размер: 28.08 GB
Как cкачать? Как скачать Бегущий в лабиринте: Лекарство от смерти через торрент | qTorrent

% Раздел Тема Автор DL S | L
Фильмы [HD 720p, 1080p] (Хороший звук DUB, MVO) [ 4.84 GB ] Бегущий в лабиринте: Лекарство от смерти / Maze Runner: The Death Cure [2018 BDRip 1080p HEVC ()] Мичман37 Скачать
1 | 0
Фильмы 2018 [DVDrip, WEB-DLRip, HDrip] (DUB, MVO) [ 2.18 GB ] Бегущий в лабиринте: Лекарство от смерти / Maze Runner: The Death Cure [2018 BDRip] - [] Twi7ter Скачать
2 | 1
Фильмы (Blu-ray, BD-Remux, HDDVD) [ 44.23 GB ] Бегущий в лабиринте: Лекарство от смерти / Maze Runner: The Death Cure [2018 Blu-ray EUR 1080p] DUB [] bober100 Скачать
1 | 0
Ultra HD (UHD: 2K, 4K, 8K) — видео сверхвысокой чёткости [ 28.56 GB ] Бегущий в лабиринте: Лекарство от смерти / Maze Runner: The Death Cure [2018 UHD BDRip 2160p] DUB + MVO [HDRezka] sheker187 Скачать
1 | 0
Фильмы [HD 720p, 1080p] (Хороший звук DUB, MVO) [ 7.02 GB ] Бегущий в лабиринте: Лекарство от смерти / Maze Runner: The Death Cure [2018 BDRip 720p] MVO [HDRezka Studio] +DUB [] bober100 Скачать
1 | 0
Ultra HD (UHD: 2K, 4K, 8K) — видео сверхвысокой чёткости [ 57.8 GB ] Бегущий в лабиринте: Лекарство от смерти / Maze Runner: The Death Cure [2018 UHD BDRemux 2160p] MVO [HDRezka Studio] +DUB [] bober100 Скачать
1 | 0
Фильмы 2018 [DVDrip, WEB-DLRip, HDrip] (DUB, MVO) [ 2.9 GB ] Бегущий в лабиринте: Лекарство от смерти / Maze Runner: The Death Cure [2018 BDRip-AVC] DUB [] bober100 Скачать
1 | 0

28-11-2019 20:33  

Отключить всю рекламу на сайте

    Дорогой пользователь! Огромная просьба, поблагодарите релизера, оцените раздачу и оставьте свои комментарий, если Вы скачали Бегущий в лабиринте: Лекарство от смерти через торрент бесплатно! Внесите свою лепту в развитие PiratBit!
    Комментировать посты могут только пользователи прошедшие не сложную регистрацию
    Показать сообщения:    

    Бегущий в лабиринте: Лекарство от смерти через торрент
    Скачать бесплатно Бегущий в лабиринте: Лекарство от смерти
    Бегущий в лабиринте: Лекарство от смерти скачать торрент
    Бегущий в лабиринте: Лекарство от смерти смотреть онлайн
    Cкачать фильм Бегущий в лабиринте: Лекарство от смерти бесплатно
    Бегущий в лабиринте: Лекарство от смерти скачать торрент в хорошем качестве
    Бегущий в лабиринте: Лекарство от смерти смотреть онлайн бесплатно в хорошем качестве


    Вы не можете начинать темы
    Вы не можете отвечать на сообщения
    Вы не можете редактировать свои сообщения
    Вы не можете удалять свои сообщения
    Вы не можете голосовать в опросах
    Вы не можете прикреплять файлы к сообщениям
    Вы можете скачивать файлы