Ссылка на приватное зеркало всего за 1$. Внимание количество ограничено!!!

iTunes

iTunes

iTunes

1

iTunes

iTunes

iTunes

WEBRip

iTunes

30
pack

$ от Little Big

ВАЖНО

!!Акция!!

Alien_RageХит недели

RePack

Resident Evil 21

ИГРА 18+

pack

RePack

jed

!!Акция!!

Alien_Rage

RePack

fifa19

RePack

Assassins Creed: Odyssey

RePack

NEED FOR SPEED™ PAYBACK

4 сезон

9 сезон

Бесстыжие 9 сезон

Все сериалы

все сериалы на PB.wtf

RePack

FAR CRY 5
  

Пикап: Съём без правил (Феликс Герчиков) [2009 г., мелодрама, комедия, BDRip-AVC, лицензия] ExKinoRay pb.wtf

Пикап: Съём без правил через торрент pb.wtf

Размер: 2.03 GB | Добавлен: 2 года 3 мес. назад | Торрент скачан:43 раза
Скачать  

29-04-2018 03:06 Пикап: Съём без правил Скачать торрент  

Информация о фильме
Название: Пикап: Съём без правил
Год выхода: 2009
Жанр: мелодрама, комедия
Режиссер: Феликс Герчиков
В ролях:
Константин Крюков, Шамиль Хаматов, Вадим Утенков, Ксения Радченко, Катя Гордон, Татьяна Лютаева, Екатерина Семенова, Павел Сыроежкин, Эльмира Метревели, Алиса Старовойтова

Описание:
Они называют себя пикаперами. Их девиз — бери от жизни всё, пока молод, их оружие — внешность, их «жертвы» — девушки, места их охоты — улицы ночной Москвы. Трое молодых парней, студентов, состязаются за право быть лучшим в теории и практике соблазнения. Циники и манипуляторы, они вырабатывают правила и условия соревнования. По ходу «игры» растет азарт, растут и ставки — до тех пор, пока они не затевают спор, который навсегда изменит их жизни.

rating

Страна: Россия
Студия: Красная стрела, Рекун-синема
Продолжительность: 01:16:35
Перевод: не требуется

Файл
Формат: MKV
Качество: BDRip-AVC
Видео: MPEG-4 AVC, 1024x436 (2.35:1), 23.976 fps, ~ 3350 kbps avg, 0.313 bit/pixel
Аудио: 48 kHz, AC3, 5.1, 448 Kbps | ENG |

Сохранены оригинальные чаптеры как на Blu-Ray.
General
Unique ID : 219779124555307154242949717374196795022 (0xA557EB72537B234F8FA76E5FB9CC468E)
Complete name : D:\Pikap.Flirt.no.rules.2009.BDRip.AVC.ExKinoRay.mkv
Format : Matroska
Format version : Version 2
File size : 2.03 GiB
Duration : 1 h 16 min
Overall bit rate : 3 795 kb/s
Movie name : Пикап. Съём без правил (2009) from ExKinoRay
Encoded date : UTC 2018-04-25 11:38:22
Writing application : mkvmerge v5.6.0 ('Kenya Kane') built on May 27 2012 16:44:04
Writing library : libebml v1.2.3 + libmatroska v1.3.0

Video
ID : 1
Format : AVC
Format/Info : Advanced Video Codec
Format profile : High@L4.1
Format settings, CABAC : Yes
Format settings, ReFrames : 12 frames
Codec ID : V_MPEG4/ISO/AVC
Duration : 1 h 16 min
Bit rate : 3 350 kb/s
Width : 1 024 pixels
Height : 436 pixels
Display aspect ratio : 2.35:1
Frame rate mode : Constant
Frame rate : 23.976 (23976/1000) FPS
Color space : YUV
Chroma subsampling : 4:2:0
Bit depth : 8 bits
Scan type : Progressive
Bits/(Pixel*Frame) : 0.313
Stream size : 1.75 GiB (86%)
Title : Enigma
Writing library : x264 core 152 r2851 ba24899
Encoding settings : cabac=1 / ref=12 / deblock=1:-2:-2 / analyse=0x3:0x113 / me=umh / subme=10 / psy=1 / psy_rd=1.05:0.10 / mixed_ref=1 / me_range=32 / chroma_me=1 / trellis=2 / 8x8dct=1 / cqm=0 / deadzone=21,11 / fast_pskip=0 / chroma_qp_offset=-3 / threads=12 / lookahead_threads=3 / sliced_threads=0 / nr=0 / decimate=0 / interlaced=0 / bluray_compat=0 / constrained_intra=0 / bframes=12 / b_pyramid=2 / b_adapt=2 / b_bias=0 / direct=3 / weightb=1 / open_gop=0 / weightp=2 / keyint=240 / keyint_min=23 / scenecut=40 / intra_refresh=0 / rc_lookahead=40 / rc=2pass / mbtree=0 / bitrate=3350 / ratetol=1.0 / qcomp=0.60 / qpmin=0 / qpmax=51 / qpstep=4 / cplxblur=20.0 / qblur=0.5 / vbv_maxrate=50000 / vbv_bufsize=62500 / nal_hrd=none / filler=0 / ip_ratio=1.40 / pb_ratio=1.30 / aq=1:1.00
Language : English
Default : Yes
Forced : No
Color range : Limited
Color primaries : BT.709
Transfer characteristics : BT.709
Matrix coefficients : BT.709

Audio
ID : 2
Format : AC-3
Format/Info : Audio Coding 3
Mode extension : CM (complete main)
Format settings, Endianness : Big
Codec ID : A_AC3
Duration : 1 h 16 min
Bit rate mode : Constant
Bit rate : 448 kb/s
Channel(s) : 6 channels
Channel positions : Front: L C R, Side: L R, LFE
Sampling rate : 48.0 kHz
Frame rate : 31.250 FPS (1536 spf)
Compression mode : Lossy
Stream size : 245 MiB (12%)
Language : Russian
Default : Yes
Forced : No

Menu
00:00:00.000 : en:Chapter 01
00:08:01.147 : en:Chapter 02
00:14:13.269 : en:Chapter 03
00:18:50.838 : en:Chapter 04
00:23:27.572 : en:Chapter 05
00:27:54.589 : en:Chapter 06
00:38:37.732 : en:Chapter 07
00:45:27.933 : en:Chapter 08
00:52:37.362 : en:Chapter 09
01:01:23.054 : en:Chapter 10
01:07:54.653 : en:Chapter 11
01:13:17.643 : en:Chapter 12
01:16:34.840 : en:Chapter 13
Релиз от:

Автор релиза: pb.wtf



Скачать Пикап: Съём без правил через торрент http://i85.fastpic.ru/big/2016/0905/a5/fc7450f3c3c4110af11b5877b1a9a7a5.jpg Скачать фильм Пикап: Съём без правил через торрент бесплантно в хорошем качестве Описание:Они называют себя пикаперами. Их девиз — бери от жизни всё, пока молод, их оружие — внешность, их «жертвы» — девушки, места их ... 10 10 3
Info! Золотая раздача, скачанное не засчитывается.
Торрент: Зарегистрирован [2018-04-29 03:06] · скачан: 43 раз
Статус: √ проверено
Размер: 2.03 GB
Как cкачать? Как скачать Пикап: Съём без правил через торрент | qTorrent

28-11-2019 20:33  

Отключить всю рекламу на сайте

    Дорогой пользователь! Огромная просьба, поблагодарите релизера, оцените раздачу и оставьте свои комментарий, если Вы скачали Пикап: Съём без правил через торрент бесплатно! Внесите свою лепту в развитие PiratBit!
    Комментировать посты могут только пользователи прошедшие не сложную регистрацию
    Показать сообщения:    

    Пикап: Съём без правил через торрент
    Скачать бесплатно Пикап: Съём без правил
    Пикап: Съём без правил скачать торрент
    Пикап: Съём без правил смотреть онлайн
    Cкачать фильм Пикап: Съём без правил бесплатно
    Пикап: Съём без правил скачать торрент в хорошем качестве
    Пикап: Съём без правил смотреть онлайн бесплатно в хорошем качестве


    Вы не можете начинать темы
    Вы не можете отвечать на сообщения
    Вы не можете редактировать свои сообщения
    Вы не можете удалять свои сообщения
    Вы не можете голосовать в опросах
    Вы не можете прикреплять файлы к сообщениям
    Вы можете скачивать файлы