Ссылка на приватное зеркало всего за 1$. Внимание количество ограничено!!!

iTunes

1+1

iTunes

мы

WEB-DL

1

iTunes

Чернобыль

iTunes

Ральф против интернета

Лицензия

ПШазам

Лицензия

Оно 2

Лицензия

30
pack

Вам бонус

ВАЖНО

!!Акция!!

Alien_RageХит недели

RePack

Resident Evil 21

ИГРА 18+

pack

RePack

jed

!!Акция!!

Alien_Rage

RePack

fifa19

RePack

Assassins Creed: Odyssey

RePack

NEED FOR SPEED™ PAYBACK

3 сезон

9 сезон

Бесстыжие 9 сезон

Все сериалы

все сериалы на PB.wtf

RePack

FAR CRY 5
Ребята, катастрофически не хватает 1900р. для оплаты серверов за Октябрь (всвязи с блокировками трафик упал в 3 раза), 1-2р., выручайте.
  

Бегущий в лабиринте: Лекарство от смерти / Maze Runner: The Death Cure (Уэс Болл) [2018, фантастика, боевик, триллер, BDRip-AVC] DUB [Лицензия] pb.wtf

Бегущий в лабиринте: Лекарство от смерти через торрент pb.wtf

Раздают: 2 [ 0 KB/s ]
Размер: 2.9 GB | Добавлен: 1 год 7 мес. назад | Торрент скачан:532 раза
Скачать  

29-04-2018 04:13 Бегущий в лабиринте: Лекарство от смерти Скачать торрент  

Бегущий в лабиринте: Лекарство от смерти / Maze Runner: The Death Cure
Год выпуска: 2018
Страна: США
Жанр: фантастика, боевик, триллер
Продолжительность: 02:23:52
Перевод: Дублированный | Лицензия
Субтитры: Русские, английские

Режиссер: Уэс Болл

rating

В ролях:

Дилан О Брайен, Ли Ги-хон, Кая Скоделарио, Томас Сэнгстер, Декстер Дарден, Уилл Поултер, Джейкоб Лофленд, Роза Салазар, Джанкарло Эспозито, Патришия Кларксон

Описание:

Томас возглавляет отряд выживших глейдеров, чтобы выполнить последнюю и самую опасную миссию. Ради спасения своих друзей они должны проникнуть в легендарный Последний город, смертоносный лабиринт, контролируемый ПОРОКом. Каждый, кто выживет там, наконец-то получит ответы на все вопросы, которые мучили глейдеров с момента попадания в лабиринт.

Качество: BDRip-AVC
Формат: MKV

Видео: 1024x428 (2,40:1), 23,976 fps, x264 ~1 988 kbps avg, 0.189 bit/pixel
Аудио#1: 48 kHz, AC3 Dolby Digital, 3/2 (L,C,R,l,r) + LFE ch, ~448.00 kbps avg | RUS (Лицензия)
Аудио#2: 48 kHz, AC3 Dolby Digital, 3/2 (L,C,R,l,r) + LFE ch, ~448.00 kbps avg | ENG
скриншот   скриншот   скриншот   скриншот  

Общее
Уникальный идентификатор : 186491398911109994045006364313023980684 (0x8C4CEFDC2CDB00D181461E1693DCA48C)
Полное имя : E:OlLanDGroupMaze.Runner.The.Death.Cure.2018.BDRip(AVC).OlLanDGroup.mkv
Формат : Matroska
Версия формата : Version 4 / Version 2
Размер файла : 2,90 Гбайт
Продолжительность : 2 ч. 23 м.
Общий поток : 2890 Кбит/сек
Название фильма : Maze.Runner.The.Death.Cure.2018 #TorpedoUK#
Дата кодирования : UTC 2018-04-29 03:50:28
Программа кодирования : mkvmerge v8.3.0 ('Over the Horizon') 64bit
Библиотека кодирования : libebml v1.3.1 + libmatroska v1.4.2
Обложка : Yes
Attachments : small_cover.jpg / small_cover_land.jpg / cover.jpg / cover_land.jpg

Видео
Идентификатор : 1
Формат : AVC
Формат/Информация : Advanced Video Codec
Профиль формата : High@L4.1
Параметр CABAC формата : Да
Параметр ReFrames формата : 10 кадров
Идентификатор кодека : V_MPEG4/ISO/AVC
Продолжительность : 2 ч. 23 м.
Битрейт : 1988 Кбит/сек
Ширина : 1024 пикселя
Высота : 428 пикселей
Соотношение сторон : 2,40:1
Режим частоты кадров : Постоянный
Частота кадров : 23,976 (24000/1001) кадра/сек
Цветовое пространство : YUV
Субдискретизация насыщенности : 4:2:0
Битовая глубина : 8 бит
Тип развёртки : Прогрессивная
Бит/(Пиксели*Кадры) : 0.189
Размер потока : 2,00 Гбайт (69%)
Библиотека кодирования : x264 core 146 r2538 121396c
Настройки программы : cabac=1 / ref=10 / deblock=1:-3:-3 / analyse=0x3:0x133 / me=umh / subme=11 / psy=1 / psy_rd=1.00:0.04 / mixed_ref=1 / me_range=48 / chroma_me=1 / trellis=2 / 8x8dct=1 / cqm=0 / deadzone=21,11 / fast_pskip=1 / chroma_qp_offset=-3 / threads=6 / lookahead_threads=1 / sliced_threads=0 / nr=0 / decimate=1 / interlaced=0 / bluray_compat=0 / constrained_intra=0 / bframes=10 / b_pyramid=2 / b_adapt=2 / b_bias=0 / direct=3 / weightb=1 / open_gop=0 / weightp=2 / keyint=240 / keyint_min=23 / scenecut=40 / intra_refresh=0 / rc_lookahead=40 / rc=2pass / mbtree=0 / bitrate=1988 / ratetol=1.0 / qcomp=0.60 / qpmin=0 / qpmax=69 / qpstep=4 / cplxblur=20.0 / qblur=0.5 / vbv_maxrate=50000 / vbv_bufsize=62500 / nal_hrd=none / filler=0 / ip_ratio=1.40 / pb_ratio=1.30 / aq=1:1.00
Язык : English
Default : Да
Forced : Нет

Аудио #1
Идентификатор : 2
Формат : AC-3
Формат/Информация : Audio Coding 3
Расширение режима : CM (complete main)
Параметр Endianness формата : Big
Идентификатор кодека : A_AC3
Продолжительность : 2 ч. 23 м.
Вид битрейта : Постоянный
Битрейт : 448 Кбит/сек
Каналы : 6 каналов
Расположение каналов : Front: L C R, Side: L R, LFE
Частота : 48,0 КГц
Частота кадров : 31,250 кадров/сек (1536 spf)
Битовая глубина : 16 бит
Метод сжатия : С потерями
Размер потока : 461 Мбайт (16%)
Заголовок : License
Язык : Russian
Default : Да
Forced : Нет

Аудио #2
Идентификатор : 3
Формат : AC-3
Формат/Информация : Audio Coding 3
Расширение режима : CM (complete main)
Параметр Endianness формата : Big
Идентификатор кодека : A_AC3
Продолжительность : 2 ч. 23 м.
Вид битрейта : Постоянный
Битрейт : 448 Кбит/сек
Каналы : 6 каналов
Расположение каналов : Front: L C R, Side: L R, LFE
Частота : 48,0 КГц
Частота кадров : 31,250 кадров/сек (1536 spf)
Битовая глубина : 16 бит
Метод сжатия : С потерями
Размер потока : 461 Мбайт (16%)
Заголовок : Original
Язык : English
Default : Нет
Forced : Нет

Текст #1
Идентификатор : 4
Формат : UTF-8
Идентификатор кодека : S_TEXT/UTF8
Идентификатор кодека/Информация : UTF-8 Plain Text
Продолжительность : 2 ч. 15 м.
Битрейт : 56 бит/сек
Count of elements : 1331
Размер потока : 56,4 Кбайт (0%)
Заголовок : Full
Язык : Russian
Default : Нет
Forced : Нет

Текст #2
Идентификатор : 5
Формат : UTF-8
Идентификатор кодека : S_TEXT/UTF8
Идентификатор кодека/Информация : UTF-8 Plain Text
Продолжительность : 2 ч. 17 м.
Битрейт : 35 бит/сек
Count of elements : 1480
Размер потока : 35,9 Кбайт (0%)
Заголовок : Full
Язык : English
Default : Нет
Forced : Нет

Текст #3
Идентификатор : 6
Формат : UTF-8
Идентификатор кодека : S_TEXT/UTF8
Идентификатор кодека/Информация : UTF-8 Plain Text
Продолжительность : 2 ч. 17 м.
Битрейт : 40 бит/сек
Count of elements : 1690
Размер потока : 40,7 Кбайт (0%)
Заголовок : SDH
Язык : English
Default : Нет
Forced : Нет

Меню
00:00:00.000 : en:Chapter 01
00:11:31.315 : en:Chapter 02
00:15:59.458 : en:Chapter 03
00:20:08.290 : en:Chapter 04
00:24:34.639 : en:Chapter 05
00:30:40.547 : en:Chapter 06
00:36:47.330 : en:Chapter 07
00:43:15.342 : en:Chapter 08
00:48:06.091 : en:Chapter 09
00:55:17.063 : en:Chapter 10
01:02:42.592 : en:Chapter 11
01:07:14.488 : en:Chapter 12
01:11:55.894 : en:Chapter 13
01:15:47.918 : en:Chapter 14
01:23:20.328 : en:Chapter 15
01:29:45.171 : en:Chapter 16
01:34:00.593 : en:Chapter 17
01:40:09.461 : en:Chapter 18
01:43:33.081 : en:Chapter 19
01:53:38.269 : en:Chapter 20
01:59:43.551 : en:Chapter 21
02:04:49.231 : en:Chapter 22
02:10:03.003 : en:Chapter 23
02:18:03.942 : en:Chapter 24

pb.wtf



Скачать Бегущий в лабиринте: Лекарство от смерти через торрент http://img12.lostpic.net/2018/04/13/865d40980046361083307e71e3f73d9d.jpg Скачать фильм Бегущий в лабиринте: Лекарство от смерти через торрент бесплантно в хорошем качестве Описание: Томас возглавляет отряд выживших глейдеров, чтобы выполнить последнюю и самую опасную миссию. Ради спасения своих друзей они ... 10 10 8
Торрент: Зарегистрирован [2018-04-29 04:13] · скачан: 532 раз
Статус: √ проверено
Размер: 2.9 GB
Как cкачать? Как скачать Бегущий в лабиринте: Лекарство от смерти через торрент | qTorrent

% Раздел Тема Автор DL S | L
Фильмы [HD 720p, 1080p] (Хороший звук DUB, MVO) [ 4.84 GB ] Бегущий в лабиринте: Лекарство от смерти / Maze Runner: The Death Cure [2018 BDRip 1080p HEVC ()] Мичман37 Скачать
2 | 0
Фильмы 2018 [DVDrip, WEB-DLRip, HDrip] (DUB, MVO) [ 2.18 GB ] Бегущий в лабиринте: Лекарство от смерти / Maze Runner: The Death Cure [2018 BDRip] - [] Twi7ter Скачать
6 | 0
Фильмы (Blu-ray, BD-Remux, HDDVD) [ 44.23 GB ] Бегущий в лабиринте: Лекарство от смерти / Maze Runner: The Death Cure [2018 Blu-ray EUR 1080p] DUB [] bober100 Скачать
1 | 0
Ultra HD (UHD: 2K, 4K, 8K) — видео сверхвысокой чёткости [ 28.56 GB ] Бегущий в лабиринте: Лекарство от смерти / Maze Runner: The Death Cure [2018 UHD BDRip 2160p] DUB + MVO [HDRezka] sheker187 Скачать
1 | 0
Фильмы [HD 720p, 1080p] (Хороший звук DUB, MVO) [ 7.02 GB ] Бегущий в лабиринте: Лекарство от смерти / Maze Runner: The Death Cure [2018 BDRip 720p] MVO [HDRezka Studio] +DUB [] bober100 Скачать
2 | 0
Ultra HD (UHD: 2K, 4K, 8K) — видео сверхвысокой чёткости [ 57.8 GB ] Бегущий в лабиринте: Лекарство от смерти / Maze Runner: The Death Cure [2018 UHD BDRemux 2160p] MVO [HDRezka Studio] +DUB [] bober100 Скачать
1 | 0
Фильмы (Blu-ray, BD-Remux, HDDVD) [ 28.08 GB ] Бегущий в лабиринте: Лекарство от смерти / Maze Runner: The Death Cure [2018 BD Remux 1080p] MVO [HDRezka Studio] +DUB [] bober100 Скачать
1 | 0

28-11-2019 20:33  

Отключить всю рекламу на сайте

    Дорогой пользователь! Огромная просьба, поблагодарите релизера, оцените раздачу и оставьте свои комментарий, если Вы скачали Бегущий в лабиринте: Лекарство от смерти через торрент бесплатно! Внесите свою лепту в развитие PiratBit!
    Комментировать посты могут только пользователи прошедшие не сложную регистрацию
    Показать сообщения:    

    Бегущий в лабиринте: Лекарство от смерти через торрент
    Скачать бесплатно Бегущий в лабиринте: Лекарство от смерти
    Бегущий в лабиринте: Лекарство от смерти скачать торрент
    Бегущий в лабиринте: Лекарство от смерти смотреть онлайн
    Cкачать фильм Бегущий в лабиринте: Лекарство от смерти бесплатно
    Бегущий в лабиринте: Лекарство от смерти скачать торрент в хорошем качестве
    Бегущий в лабиринте: Лекарство от смерти смотреть онлайн бесплатно в хорошем качестве


    Вы не можете начинать темы
    Вы не можете отвечать на сообщения
    Вы не можете редактировать свои сообщения
    Вы не можете удалять свои сообщения
    Вы не можете голосовать в опросах
    Вы не можете прикреплять файлы к сообщениям
    Вы можете скачивать файлы