Ссылка на приватное зеркало всего за 1$. Внимание количество ограничено!!!

iTunes

iTunes

iTunes

1

iTunes

iTunes

iTunes

WEBRip

iTunes

30
pack

$ от Little Big

ВАЖНО

!!Акция!!

Alien_RageХит недели

RePack

Resident Evil 21

ИГРА 18+

pack

RePack

jed

!!Акция!!

Alien_Rage

RePack

fifa19

RePack

Assassins Creed: Odyssey

RePack

NEED FOR SPEED™ PAYBACK

4 сезон

9 сезон

Бесстыжие 9 сезон

Все сериалы

все сериалы на PB.wtf

RePack

FAR CRY 5
  

Пугало / Scarecrows (Стюарт Стоун) [2018, ужасы, BDRip 720p] MVO ["Синема УС"] pb.wtf

Пугало через торрент pb.wtf

Размер: 4.11 GB | Добавлен: 2 года 3 мес. назад | Торрент скачан:80 раз
Скачать  

29-04-2018 07:51 Пугало Скачать торрент  

Пугало / ScarecrowsГод выпуска: 2018
Страна: Канада
Жанр: ужасы
Продолжительность: 01:27:55
Перевод: Любительский (многоголосый) | "Синема УС"
Субтитры: отсутствуют

Режиссер: Стюарт Стоун

rating

В ролях:

Сэмми Барбер, Остин Даффи, Ханна Гордон, Умед Абдулла, Дерек Кристофф, Мааор Зив, Майк Тейлор, Джейсон Дж. Томас

Описание:

Подростков похищают и превращают в чучело, которые умирают на полях.

Качество: BDRip 720p
Формат: MKV

Видео: H.264, 6 239 kb/s, 1280x536
Аудио#1: Русский (AC3, 2 ch, 448 Кбит/с)
скриншот  скриншот  скриншот  

Общее
Уникальный идентификатор : 205168660150364296273595549628174107139 (0x9A5A0BEF81D64C35AC35977808130203)
Полное имя : D:\Scarecrows.2017.P.BDRip.72Op_KOSHARA.mkv
Формат : Matroska
Версия формата : Version 2
Размер файла : 4,11 Гбайт
Продолжительность : 1 ч. 27 м.
Режим общего битрейта : Переменный
Общий поток : 6689 Кбит/сек
Дата кодирования : UTC 2018-04-28 10:50:22
Программа кодирования : mkvmerge v8.3.0 ('Over the Horizon') 64bit
Библиотека кодирования : libebml v1.3.1 + libmatroska v1.4.2

Видео
Идентификатор : 1
Формат : AVC
Формат/Информация : Advanced Video Codec
Профиль формата : High@L4.1
Параметр CABAC формата : Да
Параметр RefFrames формата : 4 кадра
Идентификатор кодека : V_MPEG4/ISO/AVC
Продолжительность : 1 ч. 27 м.
Вид битрейта : Переменный
Битрейт : 6239 Кбит/сек
Максимальный битрейт : 6800 Кбит/сек
Ширина : 1280 пикселей
Высота : 536 пикселей
Соотношение сторон : 2,40:1
Режим частоты кадров : Постоянный
Частота кадров : 23,976 (24000/1001) кадра/сек
Стандарт вещания : Component
Цветовое пространство : YUV
Субдискретизация насыщенности : 4:2:0
Битовая глубина : 8 бит
Тип развёртки : Прогрессивная
Бит/(Пиксели*Кадры) : 0.371
Размер потока : 3,75 Гбайт (91%)
Default : Да
Forced : Нет
Цветовой диапазон : Limited
Основные цвета : BT.709
Характеристики трансфера : BT.709
Коэффициенты матрицы : BT.709

Аудио
Идентификатор : 2
Формат : AC-3
Формат/Информация : Audio Coding 3
Расширение режима : CM (complete main)
Параметр Endianness формата : Big
Идентификатор кодека : A_AC3
Продолжительность : 1 ч. 27 м.
Вид битрейта : Постоянный
Битрейт : 448 Кбит/сек
Каналы : 2 канала
Расположение каналов : Front: L R
Частота : 48,0 КГц
Частота кадров : 31,250 кадров/сек (1536 spf)
Метод сжатия : С потерями
Размер потока : 282 Мбайт (7%)
Default : Да
Forced : Нет

pb.wtf



Скачать Пугало через торрент http://img12.lostpic.net/2018/04/29/dbf98114b5793b67366606cdede87215.jpg Скачать фильм Пугало через торрент бесплантно в хорошем качестве Описание: Подростков похищают и превращают в чучело, которые умирают на ... 8.7 10 9
Торрент: Зарегистрирован [2018-04-29 07:51] · скачан: 80 раз
Статус: T временная
Размер: 4.11 GB
Как cкачать? Как скачать Пугало через торрент | qTorrent

% Раздел Тема Автор DL S | L
T Фильмы (мультфильмы) cо спонсором показа (Новинки AVI/MKV) [ 1.37 GB ] Пугало / Scarecrows [2018 HDRip] MVO ["Синема УС"] bober100 Скачать
1 | 0
Фильмы [HD 720p, 1080p] (Хороший звук DUB, MVO) [ 10.88 GB ] Пугала / Scarecrows [1988 BDRip 1080p by msltel] DVO AVO msltel Скачать
1 | 0
Фильмы [HD 720p, 1080p] (Хороший звук DUB, MVO) [ 3.46 GB ] Пугала / Scarecrows [1988 BDRip 720p by msltel] DVO AVO msltel Скачать
1 | 0

28-11-2019 20:33  

Отключить всю рекламу на сайте

29-04-2018 14:12 Пугало Скачать торрент  

"Подростков похищают и превращают в чучело, которые умирают на полях"... ШТА???pb.wtf



29-04-2018 18:36 Пугало Скачать торрент  

Совсем ???pb.wtf



01-05-2018 00:01 Пугало Скачать торрент  

Ваще тема. классный ужастик.
ну да тупо они обыграли повреждение ноги)) но в целом не плохоpb.wtf



    Дорогой пользователь! Огромная просьба, поблагодарите релизера, оцените раздачу и оставьте свои комментарий, если Вы скачали Пугало через торрент бесплатно! Внесите свою лепту в развитие PiratBit!
    Комментировать посты могут только пользователи прошедшие не сложную регистрацию
    Показать сообщения:    

    Пугало через торрент
    Скачать бесплатно Пугало
    Пугало скачать торрент
    Пугало смотреть онлайн
    Cкачать фильм Пугало бесплатно
    Пугало скачать торрент в хорошем качестве
    Пугало смотреть онлайн бесплатно в хорошем качестве


    Вы не можете начинать темы
    Вы не можете отвечать на сообщения
    Вы не можете редактировать свои сообщения
    Вы не можете удалять свои сообщения
    Вы не можете голосовать в опросах
    Вы не можете прикреплять файлы к сообщениям
    Вы можете скачивать файлы