2 сезон

iTunes

1 сезон

1

iTunes

iTunes

iTunes

1 сезон

RePack

30

ИГРА 18+

pack

ВАЖНО

!!Акция!!

Alien_RageХит недели

RePack

MK11
pack

Забери бонус

RePack

jed

!!Акция!!

Alien_Rage

RePack

fifa19

RePack

Assassins Creed: Odyssey

RePack

NEED FOR SPEED™ PAYBACK

4 сезон

9 сезон

Бесстыжие 9 сезон

Все сериалы

все сериалы на PB.wtf

RePack

FAR CRY 5
  

Десять стрел для одной / Серия 1-4 из 4 / (Наталия Микрюкова) [2018 г., Детектив, Криминал, Мелодрама, SATRip] pb.wtf

Десять стрел для одной через торрент pb.wtf

Размер: 2.4 GB | Добавлен: 2 года 6 мес. назад | Торрент скачан:82 раза
Скачать  

29-04-2018 10:33 Десять стрел для одной Скачать торрент  

Десять стрел для одной / Серия 1-4 из 4 /
Год выпуска: 2018
Страна: Россия
Жанр: Детектив, Криминал, Мелодрама
Продолжительность: 4 х 00:46:00
Субтитры: Нет

Режиссер: Наталия Микрюкова

В ролях: Екатерина Копанова, Станислав Бондаренко, Лидия Арефьева, Василий Мищенко, Василий Антонов (II), Алла Малкова, Евгений Березовский, Константин Чепурин, Евгений Воскресенский, Екатерина Гудина, Нина Ракова, Анастасия Привалова, Наталья Беляева, Анастасия Савосина, Олег Бойко

Описание: Скучноватое, но спокойное течение жизни скромной библиотекарши Надежды Митрофановой прерывается чрезвычайным происшествием. В конце обычного рабочего дня к Наде на работу неожиданно заявляется её бывший однокурсник по истфаку университета, а ныне – известный питерский журналист Дмитрий Полуянов. Он приглашает Надю на свои мастер-классы, которые, как оказалось впоследствии, просто прикрытие его очередного журналистского расследования – махинаций в благотворительном фонде, собирающем деньги на якобы лечение смертельно больных детей.
Практически одновременно пенсионер Сергеев дарит библиотеке дорогую антикварную книгу, которая волею случая остается у Нади. Затем Надежда нежданно получает наследство от отца, которого не знала – участок с домом стоимостью под миллион долларов. А ещё чуть позже, за Надей и Димой начинает следить некто неизвестный... Так за кем же идет охота? За Полуяновым, который вспугнул мошенников псевдоблаготворительного фонда? Или за Надей, в руках которой осталась ценная книга? Или... угроза исходит от кого-то ещё?

Качество: SATRip
Формат: AVI
Видео кодек: XviD
Аудио кодек: MP3
Видео: 720x400 (1.80:1), 25 fps, XviD build 50 ~1800 kbps avg, 0.27 bit/pixel
Аудио#1: 48 kHz, MPEG Layer 3, 2 ch, ~128.00 kbps avg
скриншот   скриншот   скриншот   скриншот  

General
Complete name : H:\релизы.торрентфайл\Desjat.strel.dlja.odnoj.SATRip.[www.riperam.org]\Desjat.strel.dlja.odnoj.01.SATRip.[www.riperam.org].avi
Format : AVI
Format/Info : Audio Video Interleave
File size : 613 MiB
Duration : 43mn 47s
Overall bit rate : 1 958 Kbps
Writing application : VirtualDubMod 1.5.10.3 | www.virtualdub-fr.org || (build 2550/release)
Writing library : VirtualDubMod build 2550/release

Video
ID : 0
Format : MPEG-4 Visual
Format profile : Advanced Simple@L5
Format settings, BVOP : 2
Format settings, QPel : No
Format settings, GMC : No warppoints
Format settings, Matrix : Default (H.263)
Codec ID : XVID
Codec ID/Hint : XviD
Duration : 43mn 47s
Bit rate : 1 820 Kbps
Width : 720 pixels
Height : 400 pixels
Display aspect ratio : 16:9
Frame rate : 25.000 fps
Color space : YUV
Chroma subsampling : 4:2:0
Bit depth : 8 bits
Scan type : Progressive
Compression mode : Lossy
Bits/(Pixel*Frame) : 0.253
Stream size : 570 MiB (93%)
Writing library : XviD 1.2.1 (UTC 2008-12-04)

Audio
ID : 1
Format : MPEG Audio
Format version : Version 1
Format profile : Layer 3
Mode : Joint stereo
Mode extension : MS Stereo
Codec ID : 55
Codec ID/Hint : MP3
Duration : 43mn 47s
Bit rate mode : Constant
Bit rate : 128 Kbps
Channel(s) : 2 channels
Sampling rate : 48.0 KHz
Compression mode : Lossy
Stream size : 40.1 MiB (7%)
Alignment : Aligned on interleaves
Interleave, duration : 40 ms (1.00 video frame)
Interleave, preload duration : 504 ms
Writing library : LAME3.99r
Encoding settings : -m j -V 4 -q 9 -lowpass 17 -b 128

Внимание! Раздача ведётся путём добавления новых серий; при каждом добавлении создётся новый торрент. Чтобы начать докачку новой серии, пользователям необходимо сделать следующее:
  • Остановить скачивание,
  • Удалить старый торрент у себя из клиента (старые серии удалять не надо),
  • Скачать новый торрент и запустить его у себя в клиенте вместо старого, при этом указать клиенту путь в старую папку куда и должно происходить скачивание новых серий.
Ваш клиент при этом должен произвести хеширование (проверку) старой папки (если не производит сам - помогите ему сделать это), и будет докачивать только те серии которых у вас ещё нет. Старые серии при этом не удаляются, а продолжают раздаваться!

Eсли вы уже удалили старые серии, то предотвратить повторную закачку старых серий можно, отжав галочку в соответсвующих местах при запуске нового торрента. По возможности, желательно не удалять старые серии как можно дольше чтобы релизёр не столько продолжал раздавать старые серии, а смог сконцентрироваться на новых.
pb.wtf



Скачать Десять стрел для одной через торрент http://i104.fastpic.ru/big/2018/0429/69/b72fdd1e9f1575dd57a62dea53fdaf69.jpg Скачать фильм Десять стрел для одной через торрент бесплантно в хорошем качестве Описание: Скучноватое, но спокойное течение жизни скромной библиотекарши Надежды Митрофановой прерывается чрезвычайным происшествием. В ... 9.7 10 7
Info! Золотая раздача, скачанное не засчитывается.
Торрент: Зарегистрирован [2018-04-29 12:07] · скачан: 82 раз
Статус: √ проверено
Размер: 2.4 GB
Как cкачать? Как скачать Десять стрел для одной через торрент | qTorrent

% Раздел Тема Автор DL S | L
Наши сериалы [ 2.15 GB ] Десять стрел для одной / Серии: 1-4 из 4 [2018 ьный фильм WEB-DLRip] bober100 Скачать
1 | 0
Наши сериалы [ 2.1 GB ] Десять стрел для одной / Серии: 1-4 из 4 [2018 экранизация SATRip-AVC] aleksan55 Скачать
1 | 0

28-11-2019 20:33  

Отключить всю рекламу на сайте

    Дорогой пользователь! Огромная просьба, поблагодарите релизера, оцените раздачу и оставьте свои комментарий, если Вы скачали Десять стрел для одной через торрент бесплатно! Внесите свою лепту в развитие PiratBit!
    Комментировать посты могут только пользователи прошедшие не сложную регистрацию
    Показать сообщения:    

    Десять стрел для одной через торрент
    Скачать бесплатно Десять стрел для одной
    Десять стрел для одной скачать торрент
    Десять стрел для одной смотреть онлайн
    Cкачать фильм Десять стрел для одной бесплатно
    Десять стрел для одной скачать торрент в хорошем качестве
    Десять стрел для одной смотреть онлайн бесплатно в хорошем качестве


    Вы не можете начинать темы
    Вы не можете отвечать на сообщения
    Вы не можете редактировать свои сообщения
    Вы не можете удалять свои сообщения
    Вы не можете голосовать в опросах
    Вы не можете прикреплять файлы к сообщениям
    Вы можете скачивать файлы