2 сезон

iTunes

MVO

1

2 сезон

iTunes

iTunes

1 сезон

RePack

30

Ultimate

ВАЖНО

ИГРА 18+

pack

RePack

MK11
pack

Легкие деньги

RePack

jed

RePack

fifa19

RePack

RDR2

RePack

NEED FOR SPEED™ PAYBACK

4 сезон

9 сезон

Бесстыжие 9 сезон

Все сериалы

все сериалы на PB.wtf

RePack

FAR CRY 5

Anonymous, доброй ночи, мы не успеваем собрать деньги на оплату серверов за декабрь и январь, помогите нам пожалуйста в это трудное время. В качестве благодарности мы отключим Вам всю рекламу на сайте (укажите свой ник в строку Ваше имя)!

×
  
Magnet ссылка

Взрослые игры / Flower (Макс Уинклер) [2017 г., Комедия, драма, криминал, WEB-DLRip] MVO [iTunes] pb.wtf

Взрослые игры через торрент pb.wtf

Размер: 356 MB | Добавлен: 2 года 8 мес. назад | Торрент скачан:28 раз
Скачать  

29-04-2018 11:26 Взрослые игры Скачать торрент  

Взрослые игры / Flower

Год выпуска: 2017
Страна: США
Жанр: Комедия, драма, криминал
Продолжительность: 01:33:35
Перевод: Профессиональный (многоголосый) [iTunes]

Режиссер

Макс Уинклер

rating

В ролях

Зои Дойч, Кэтрин Хан, Адам Скотт, Дилан Гелула, Эрик Эдельштейн, Тим Хайдекер, Майя Эшет, Джои Морган, Роми Бирн, Джоэл Хебнер.

Описание

Бесстыжая и бесстрашная Эрика готова на любые выходки, лишь бы почувствовать настоящую взрослую жизнь. Для этого у Эрики есть две веселые подруги, одно необычное хобби и целая Калифорния. Далекие от невинности забавы меняются, когда отчим знакомит Эрику со своим сыном. Кажется, у этого неуклюжего и ранимого парня нет с девушкой ничего общего, однако вскоре он перевернет ее жизнь, и дерзкая инди-комедия обернется для героев криминальным роуд-муви по солнечным просторам долины Сан-Фернандо.

Качество: WEB-DLRip
Формат: MP4
Видео кодек: AVC
Аудио кодек: AAC LC
Видео: Н.264, 640x344 (1.860), 23.976 fps, 400 Kbps
Аудио: AAC LC, 48.0 KHz, 2 ch, 128 Kbps
скриншот  скриншот  скриншот  

General
Complete name : D:\Vzroslie.igri.2018.WEB-DLRip.by.mjjhec.mp4
Format : MPEG-4
Format profile : Base Media
Codec ID : isom (isom/avc1/iso6)
File size : 356 MiB
Duration : 1h 33mn
Overall bit rate mode : Variable
Overall bit rate : 532 Kbps
Encoded date : UTC 2018-04-28 07:47:54
Tagged date : UTC 2018-04-28 07:47:54

Video
ID : 1
Format : AVC
Format/Info : Advanced Video Codec
Format profile : High@L4.1
Format settings, CABAC : Yes
Format settings, ReFrames : 10 frames
Codec ID : avc1
Codec ID/Info : Advanced Video Coding
Duration : 1h 33mn
Bit rate : 400 Kbps
Maximum bit rate : 2 753 Kbps
Width : 640 pixels
Height : 344 pixels
Display aspect ratio : 1.85:1
Frame rate mode : Constant
Frame rate : 23.976 (24000/1001) fps
Color space : YUV
Chroma subsampling : 4:2:0
Bit depth : 8 bits
Scan type : Progressive
Bits/(Pixel*Frame) : 0.076
Stream size : 268 MiB (75%)
Title : 264@GPAC0.5.2-DEV-rev248-g39d5978-master
Writing library : x264 core 146 r2538 121396c
Encoding settings : cabac=1 / ref=10 / deblock=1:-3:-3 / analyse=0x3:0x133 / me=umh / subme=11 / psy=1 / psy_rd=1.00:1.00 / mixed_ref=1 / me_range=48 / chroma_me=1 / trellis=2 / 8x8dct=1 / cqm=0 / deadzone=21,11 / fast_pskip=1 / chroma_qp_offset=-4 / threads=6 / lookahead_threads=1 / sliced_threads=0 / nr=0 / decimate=0 / interlaced=0 / bluray_compat=0 / constrained_intra=0 / bframes=10 / b_pyramid=2 / b_adapt=2 / b_bias=0 / direct=3 / weightb=1 / open_gop=0 / weightp=2 / keyint=240 / keyint_min=23 / scenecut=40 / intra_refresh=0 / rc_lookahead=60 / rc=2pass / mbtree=0 / bitrate=400 / ratetol=1.0 / qcomp=0.60 / qpmin=0 / qpmax=69 / qpstep=4 / cplxblur=20.0 / qblur=0.5 / vbv_maxrate=14000 / vbv_bufsize=14000 / nal_hrd=none / filler=0 / ip_ratio=1.40 / pb_ratio=1.30 / aq=1:1.00
Encoded date : UTC 2018-04-28 07:47:54
Tagged date : UTC 2018-04-28 07:48:02

Audio
ID : 2
Format : AAC
Format/Info : Advanced Audio Codec
Format profile : LC
Codec ID : 40
Duration : 1h 33mn
Bit rate mode : Variable
Bit rate : 128 Kbps
Maximum bit rate : 133 Kbps
Channel(s) : 2 channels
Channel positions : Front: L R
Sampling rate : 48.0 KHz
Frame rate : 46.875 fps (1024 spf)
Compression mode : Lossy
Stream size : 85.7 MiB (24%)
Encoded date : UTC 2018-04-28 06:03:41
Tagged date : UTC 2018-04-28 07:48:02

pb.wtf



Скачать Взрослые игры через торрент http://i105.fastpic.ru/big/2018/0426/aa/4bf7631493d05646d4c675c5d030f6aa.jpg Скачать фильм Взрослые игры через торрент бесплантно в хорошем качестве ОписаниеБесстыжая и бесстрашная Эрика готова на любые выходки, лишь бы почувствовать настоящую взрослую жизнь. Для этого у Эрики есть две ... 10 10 1
Торрент: Зарегистрирован [2018-04-29 11:26] · скачан: 28 раз
Статус: √ проверено
Размер: 356 MB
Как cкачать? Как скачать Взрослые игры через торрент | UTorrent

% Раздел Тема Автор DL S | L
Фильмы 2017 [DVDrip, WEB-DLRip, HDrip] (DUB, MVO) [ 1.5 GB ] Взрослые игры / Flower [2017 WEB-DLRip-AVC] MVO - ExKinoRay Enigma2010 Скачать
2 | 0
Фильмы (WEB-DL 720p, 1080p) [ 3.65 GB ] Взрослые игры / Flower [2017 WEB-DL 1080p] MVO bober100 Скачать
1 | 0
Фильмы 2017 [DVDrip, WEB-DLRip, HDrip] (DUB, MVO) [ 1.37 GB ] Взрослые игры / Flower [2017 WEB-DLRip] MVO bober100 Скачать
1 | 0

28-11-2019 20:33  

Отключить всю рекламу на сайте

    Дорогой пользователь! Огромная просьба, поблагодарите релизера, оцените раздачу и оставьте свои комментарий, если Вы скачали Взрослые игры через торрент бесплатно! Внесите свою лепту в развитие PiratBit!
    Комментировать посты могут только пользователи прошедшие не сложную регистрацию
    Показать сообщения:    

    Взрослые игры через торрент
    Скачать бесплатно Взрослые игры
    Взрослые игры скачать торрент
    Взрослые игры смотреть онлайн
    Cкачать фильм Взрослые игры бесплатно
    Взрослые игры скачать торрент в хорошем качестве
    Взрослые игры смотреть онлайн бесплатно в хорошем качестве


    Вы не можете начинать темы
    Вы не можете отвечать на сообщения
    Вы не можете редактировать свои сообщения
    Вы не можете удалять свои сообщения
    Вы не можете голосовать в опросах
    Вы не можете прикреплять файлы к сообщениям
    Вы можете скачивать файлы