2 сезон

iTunes

MVO

1

2 сезон

iTunes

iTunes

1 сезон

RePack

30

Новинка

ВАЖНО

ИГРА 18+

pack

RePack

MK11
pack

Легкие деньги

RePack

jed

RePack

fifa19

RePack

RDR2

RePack

NEED FOR SPEED™ PAYBACK

4 сезон

9 сезон

Бесстыжие 9 сезон

Все сериалы

все сериалы на PB.wtf

RePack

FAR CRY 5

Anonymous, доброй ночи, мы не успеваем собрать деньги на оплату серверов за декабрь и январь, помогите нам пожалуйста в это трудное время. В качестве благодарности мы отключим Вам всю рекламу на сайте (укажите свой ник в строку Ваше имя)!

×
  
Magnet ссылка

Пожалуйста, приготовьтесь / Please Stand By (Бен Луин) [2017 г., Драма, комедия, HDRip] MVO [HDrezka Studio] pb.wtf

Пожалуйста, приготовьтесь через торрент pb.wtf

Размер: 1.46 GB | Добавлен: 2 года 8 мес. назад | Торрент скачан:175 раз
Скачать  

29-04-2018 14:46 Пожалуйста, приготовьтесь Скачать торрент  

Пожалуйста, приготовьтесь / Please Stand By

Год выпуска: 2017
Страна: США
Жанр: Драма, комедия
Продолжительность: 01:32:46
Перевод: Профессиональный (многоголосый) [HDrezka Studio]

Режиссер

Бен Луин

Премьера в мире: 27 октября 2017

rating

В ролях

Дакота Фэннинг, Тони Коллетт, Элис Ив, Ривер Александр, Марла Гиббс, Джессика Рот, Майкл Сталь-Дэвид, Стефани Аллен, Мэттью Кардаропле, Мэтт Корбой

Описание

Сюжет художественного фильма «Пожалуйста, приготовьтесь» вертится вокруг молодой девушки Вэнди, страдающей аутизмом. Несмотря на болезнь девушка пытается вести нормальный образ жизни и в этом ей помогает сотрудница специального центра Скотти, в котором живет Вэнди. Со временем состояние девушки сильно улучшилось: она устроилась на работу в ресторан быстрого питания и завела четвероногого друга, за которым ухаживает. Вэнди может заботиться о себе сама, но сестра Одри отказывается забирать ее из центра, что приводит к срыву. Больше всего в жизни Вэнди обожает фантастический сериал «Звездный путь», который может смотреть бесконечно. Она даже пишет собственную книгу, главным героем которой стал Спок. Когда же объявляют конкурс на лучший сценарий для «Звездного пути», то Вэнди приступает к работе. Проверив и перепроверив сценарий она собирается отправить его, но не успевает к нужной дате, поэтому решает отправиться в Лос-Анджелес, чтобы доставить сценарий лично.

Качество: HDRip
Формат: AVI
Видео кодек: XviD
Аудио кодек: AC3
Видео: XviD, 1802 Кбит/с, 720x304
Аудио: AC3, 6 ch, 448 Кбит/с

скриншот  скриншот  скриншот  




General
Complete name : D:\Please.Stand.By.2017.1.46GB.MegaPeer.avi
Format : AVI
Format/Info : Audio Video Interleave
File size : 1.46 GiB
Duration : 1h 32mn
Overall bit rate : 2 258 Kbps

Video
ID : 0
Format : MPEG-4 Visual
Format profile : Advanced Simple@L5
Format settings, BVOP : 1
Format settings, QPel : No
Format settings, GMC : No warppoints
Format settings, Matrix : Custom
Codec ID : XVID
Codec ID/Hint : XviD
Duration : 1h 32mn
Bit rate : 1 802 Kbps
Width : 720 pixels
Height : 304 pixels
Display aspect ratio : 2.35:1
Frame rate : 23.976 (24000/1001) fps
Color space : YUV
Chroma subsampling : 4:2:0
Bit depth : 8 bits
Scan type : Progressive
Compression mode : Lossy
Bits/(Pixel*Frame) : 0.343
Stream size : 1.17 GiB (80%)
Writing library : XviD 73

Audio
ID : 1
Format : AC-3
Format/Info : Audio Coding 3
Mode extension : CM (complete main)
Format settings, Endianness : Big
Codec ID : 2000
Duration : 1h 32mn
Bit rate mode : Constant
Bit rate : 448 Kbps
Channel(s) : 6 channels
Channel positions : Front: L C R, Side: L R, LFE
Sampling rate : 48.0 KHz
Frame rate : 31.250 fps (1536 spf)
Compression mode : Lossy
Stream size : 297 MiB (20%)
Alignment : Aligned on interleaves
Interleave, duration : 64 ms (1.53 video frames)
Interleave, preload duration : 192 ms

pb.wtf



Скачать Пожалуйста, приготовьтесь через торрент http://i105.fastpic.ru/big/2018/0428/fa/a9409ee0a2ecd21a32fba45e97d711fa.jpg Скачать фильм Пожалуйста, приготовьтесь через торрент бесплантно в хорошем качестве ОписаниеСюжет художественного фильма «Пожалуйста, приготовьтесь» вертится вокруг молодой девушки Вэнди, страдающей аутизмом. Несмотря на ... 10 10 9
Info! Золотая раздача, скачанное не засчитывается.
Торрент: Зарегистрирован [2018-04-29 14:46] · скачан: 175 раз
Статус: √ проверено
Размер: 1.46 GB
Как cкачать? Как скачать Пожалуйста, приготовьтесь через торрент | UTorrent

% Раздел Тема Автор DL S | L
Фильмы 2017 [DVDrip, WEB-DLRip, HDrip] (DUB, MVO) [ 1.93 GB ] Пожалуйста приготовьтесь / Please Stand By [2017 BDRip-AVC] MVO [Jaskier HDrezka Studio] - ExKinoRay Enigma2010 Скачать
1 | 0
Фильмы (WEB-DL 720p, 1080p) [ 3.25 GB ] Пожалуйста приготовьтесь / Please Stand By [2017 WEB-DL 1080p] MVO [HDrezka Studio] WorldSM Скачать
1 | 0

28-11-2019 20:33  

Отключить всю рекламу на сайте

    Дорогой пользователь! Огромная просьба, поблагодарите релизера, оцените раздачу и оставьте свои комментарий, если Вы скачали Пожалуйста, приготовьтесь через торрент бесплатно! Внесите свою лепту в развитие PiratBit!
    Комментировать посты могут только пользователи прошедшие не сложную регистрацию
    Показать сообщения:    

    Пожалуйста, приготовьтесь через торрент
    Скачать бесплатно Пожалуйста, приготовьтесь
    Пожалуйста, приготовьтесь скачать торрент
    Пожалуйста, приготовьтесь смотреть онлайн
    Cкачать фильм Пожалуйста, приготовьтесь бесплатно
    Пожалуйста, приготовьтесь скачать торрент в хорошем качестве
    Пожалуйста, приготовьтесь смотреть онлайн бесплатно в хорошем качестве


    Вы не можете начинать темы
    Вы не можете отвечать на сообщения
    Вы не можете редактировать свои сообщения
    Вы не можете удалять свои сообщения
    Вы не можете голосовать в опросах
    Вы не можете прикреплять файлы к сообщениям
    Вы можете скачивать файлы